<?xml version="1.0" standalone="no"?>
<!DOCTYPE svg PUBLIC "-//W3C//DTD SVG 1.1//EN" "http://www.w3.org/Graphics/SVG/1.1/DTD/svg11.dtd" >
<svg>
<metadata>
Created by FontForge 20090914 at Sat Aug  1 09:11:40 2015
 By www-data
Copyright &#194;&#169; 2010 ParaType Ltd. All rights reserved.
</metadata>
<defs>
<font id="PTSerif-Italic" horiz-adv-x="524" >
  <font-face 
    font-family="PT Serif"
    font-weight="400"
    font-style="italic"
    font-stretch="normal"
    units-per-em="1000"
    panose-1="2 10 6 3 4 5 5 9 2 4"
    ascent="778"
    descent="-222"
    x-height="506.998"
    cap-height="700.002"
    bbox="-191 -251.132 1035 893.334"
    underline-thickness="50"
    underline-position="-50"
    slope="-12"
    unicode-range="U+000D-U+F6D4"
  />
<missing-glyph horiz-adv-x="364" 
d="M33 0v666h265v-666h-265zM66 33h199v600h-199v-600z" />
    <glyph glyph-name=".notdef" horiz-adv-x="364" 
d="M33 0v666h265v-666h-265zM66 33h199v600h-199v-600z" />
    <glyph glyph-name="glyph1" horiz-adv-x="1000" 
 />
    <glyph glyph-name="glyph1" horiz-adv-x="1000" 
 />
    <glyph glyph-name="uni000D" unicode="&#xd;" horiz-adv-x="243" 
 />
    <glyph glyph-name="space" unicode=" " horiz-adv-x="243" 
 />
    <glyph glyph-name="exclam" unicode="!" horiz-adv-x="327" 
d="M146 218l4.00098 176l60 296c16 7.33301 32.667 11 50 11s32.666 -3.66699 45.999 -11l-66 -296l-68 -176h-26zM68.001 57c0 20 6.33301 36 19 48s29 18 49 18c20.667 0 37.334 -6 50.001 -18s19 -28 19 -48c0 -19.333 -6.33301 -35 -19 -47s-29.334 -18 -50.001 -18
c-20 0 -36.333 6 -49 18s-19 27.667 -19 47z" />
    <glyph glyph-name="quotedbl" unicode="&#x22;" horiz-adv-x="341" 
d="M209 670c5.33301 8.66699 12 15.833 20 21.5s17.667 8.5 29 8.5c20.667 0 32.667 -10 36 -30l-64 -166h-20zM89 669.999c5.33301 8.66699 12 15.833 20 21.5s17.667 8.5 29 8.5c20.667 0 32.667 -10 36 -30l-64 -166h-20z" />
    <glyph glyph-name="numbersign" unicode="#" 
d="M307 233h-143l-78 -175h-53l79 175h-81l25 46h76l68 150h-77l24 46h73l76 167h52l-75 -167h142l76 167h52l-76 -167h80l-27 -46h-73l-68 -150h77l-28 -46h-69l-79 -175h-52zM185 279h142l68 150h-142z" />
    <glyph glyph-name="dollar" unicode="$" 
d="M188 -12c-17.333 0.666992 -34.835 2.99707 -52.502 6.99707s-34.167 8.83301 -49.5 14.5s-29.166 11.5 -41.499 17.5s-21.5 11.667 -27.5 17c5.33301 22 11.833 43 19.5 63s15.5 36.667 23.5 50h26l40 -97c12.667 -12.667 37 -19.334 73 -20.001l61 281l-51 34.5
c-16.667 11.667 -31.5 25 -44.5 40s-23.667 32 -32 51s-12.5 41.5 -12.5 67.5c0 24 4.66699 47.5 14 70.5s23.166 43.5 41.499 61.5s41.333 32.833 69 44.5s59.834 18.5 96.501 20.5l11 49h52l-11 -49c32.667 -1.33301 60.667 -5 84 -11s43.333 -13 60 -21
c-6 -22 -14.333 -40.5 -25 -55.5s-21 -27.5 -31 -37.5h-26l-36 68c-5.33301 0.666992 -11 1.33398 -17 2.00098s-12.333 1.66699 -19 3l-54 -257l48.5 -33.5c16.333 -11.667 31 -25.5 44 -41.5s23.5 -34.667 31.5 -56s12 -46.333 12 -75c0 -26 -5.16699 -50.667 -15.5 -74
s-25.166 -44.166 -44.499 -62.499s-43 -33.666 -71 -45.999s-59.333 -20.166 -94 -23.499l-12 -60h-52zM212.998 542.997c0 -27.333 6.66699 -49.5 20 -66.5s30 -32.167 50 -45.5l49 228c-36 -2.66699 -64.833 -14 -86.5 -34s-32.5 -47.333 -32.5 -82zM370.998 166.997
c0 28 -6.49902 51.667 -19.499 71s-29.167 36.666 -48.5 51.999l-53 -247c16 2.66699 31.167 7.33398 45.5 14.001s27.166 15.167 38.499 25.5s20.333 22.5 27 36.5s10 30 10 48z" />
    <glyph glyph-name="percent" unicode="%" horiz-adv-x="782" 
d="M706 710l35 -31l-665 -686l-34 32zM63 500c0 30.667 6 58.999 18 84.999s28 48.333 48 67s43 33.334 69 44.001s53 16 81 16c46 0 81.333 -12 106 -36s37 -55 37 -93c0 -34.667 -6.5 -65.167 -19.5 -91.5s-29.667 -48.333 -50 -66s-43.333 -31 -69 -40
s-51.167 -13.5 -76.5 -13.5c-20 0 -38.833 3.16699 -56.5 9.5s-33 15.166 -46 26.499s-23.167 24.833 -30.5 40.5s-11 32.834 -11 51.501zM146 498.999c0 -12 1.16602 -23.3301 3.49902 -33.9971s6.33301 -20.167 12 -28.5s12.834 -15 21.501 -20s19 -7.5 31 -7.5
c14.667 0 29.5 3.66699 44.5 11s28.5 18.666 40.5 33.999s21.667 34.666 29 57.999s11 51 11 83c0 10 -1.16699 19.667 -3.5 29s-6.16602 17.833 -11.499 25.5s-12.333 13.667 -21 18s-19.667 6.5 -33 6.5c-14.667 0 -29.334 -4.5 -44.001 -13.5s-28 -21.167 -40 -36.5
s-21.667 -33.833 -29 -55.5s-11 -44.834 -11 -69.501zM353.999 117.002c0 30.667 6 58.999 18 84.999s28 48.333 48 67s43 33.334 69 44.001s53 16 81 16c46 0 81.333 -12 106 -36s37 -55 37 -93c0 -34.667 -6.5 -65.167 -19.5 -91.5s-29.667 -48.333 -50 -66
s-43.333 -31 -69 -40s-51.167 -13.5 -76.5 -13.5c-20 0 -38.833 3.16699 -56.5 9.5s-33 15.166 -46 26.499s-23.167 24.833 -30.5 40.5s-11 32.834 -11 51.501zM436.999 116.001c0 -12 1.16602 -23.3301 3.49902 -33.9971s6.33301 -20.167 12 -28.5s12.834 -15 21.501 -20
s19 -7.5 31 -7.5c14.667 0 29.5 3.66699 44.5 11s28.5 18.666 40.5 33.999s21.667 34.666 29 57.999s11 51 11 83c0 10 -1.16699 19.667 -3.5 29s-6.16602 17.833 -11.499 25.5s-12.333 13.667 -21 18s-19.667 6.5 -33 6.5c-14.667 0 -29.334 -4.5 -44.001 -13.5
s-28 -21.167 -40 -36.5s-21.667 -33.833 -29 -55.5s-11 -44.834 -11 -69.501z" />
    <glyph glyph-name="ampersand" unicode="&#x26;" horiz-adv-x="872" 
d="M480 123c-16.667 18 -34.167 39.1709 -52.5 63.5039s-36 49.166 -53 74.499s-32.333 49.666 -46 72.999s-23.834 42.666 -30.501 57.999c-35.333 -28 -64.666 -59.833 -87.999 -95.5s-35.333 -77.834 -36 -126.501c0.666992 -38 13 -69.167 37 -93.5s57 -36.5 99 -36.5
c30 0 59.333 6.83301 88 20.5s56 34.5 82 62.5zM317 564.004c0 -22.667 4.66797 -45.6641 14.001 -68.9971s20.666 -44.666 33.999 -63.999c14 10 27.5 21 40.5 33s24.833 24.833 35.5 38.5s19.167 28.167 25.5 43.5s9.5 31.666 9.5 48.999
c0 23.333 -4.66699 41.666 -14 54.999s-25.333 19.666 -48 18.999c-14.667 0.666992 -28 -2 -40 -8s-22.167 -13.833 -30.5 -23.5s-14.833 -20.834 -19.5 -33.501s-7 -26 -7 -40zM611.001 0.00683594l-46.5 34.5c-18.333 13.667 -37.5 32.834 -57.5 57.501
c-12 -12.667 -26.333 -25.167 -43 -37.5s-35.5 -23.5 -56.5 -33.5s-43.833 -18 -68.5 -24s-50.334 -9 -77.001 -9c-32.667 0 -61.167 4.33301 -85.5 13s-44.666 20.5 -60.999 35.5s-28.5 32.333 -36.5 52s-12 40.5 -12 62.5c0 34 8.33301 65.5 25 94.5s36.5 55.333 59.5 79
s46.333 43.834 70 60.501s42.834 29.334 57.501 38.001c-14.667 21.333 -24.667 43 -30 65s-8 44.667 -8 68c0 21.333 5 41.5 15 60.5s23.333 35.5 40 49.5s36 25.167 58 33.5s45 12.5 69 12.5c84.667 0 127 -33.667 127 -101c0 -22.667 -5.5 -44 -16.5 -64
s-25 -38.5 -42 -55.5s-35.5 -32.667 -55.5 -47l-56 -38.5c20 -34 44.167 -69 72.5 -105s58.5 -72 90.5 -108c6.66699 7.33301 16 19.666 28 36.999s24 37.666 36 60.999s23.167 48.833 33.5 76.5s17.5 55.167 21.5 82.5c-21.333 4 -39.333 12 -54 24l5 26h203l-6 -26
c-21.333 -11.333 -45 -19.333 -71 -24c-14.667 -39.333 -30 -75 -46 -107s-31.5 -60.167 -46.5 -84.5s-28.833 -45 -41.5 -62s-22.667 -29.5 -30 -37.5c21.333 -20.667 42.166 -39.834 62.499 -57.501s43.833 -35.167 70.5 -52.5l51 -24l-6 -25h-142z" />
    <glyph glyph-name="quotesingle" unicode="'" horiz-adv-x="221" 
d="M89 670c5.33301 8.66699 12 15.833 20 21.5s17.667 8.5 29 8.5c20.667 0 32.667 -10 36 -30l-64 -166h-20z" />
    <glyph glyph-name="parenleft" unicode="(" horiz-adv-x="343" 
d="M220 -210c-57.333 49.333 -98.166 100.832 -122.499 154.499s-36.5 111.167 -36.5 172.5c0 74.667 11.167 142.334 33.5 203.001s50.666 115 84.999 163s72.5 90.167 114.5 126.5s83 67.166 123 92.499l17 -18c-32.667 -28 -66 -61 -100 -99s-65 -80.167 -93 -126.5
s-50.833 -97.166 -68.5 -152.499s-26.167 -114.333 -25.5 -177c-0.666992 -60 6.33301 -116.167 21 -168.5s41.667 -102.5 81 -150.5z" />
    <glyph glyph-name="parenright" unicode=")" horiz-adv-x="343" 
d="M-80 -190c29.333 24 60.834 54.6699 94.501 92.0029s64.667 80.166 93 128.499s52 101.833 71 160.5s28.5 121.334 28.5 188.001c0 28.667 -1.5 55.334 -4.5 80.001s-8.33301 49 -16 73s-18.167 48.333 -31.5 73s-30.333 51 -51 79l26 18
c57.333 -52 98.5 -104.833 123.5 -158.5s37.5 -111.834 37.5 -174.501c0 -69.333 -10.333 -133.833 -31 -193.5s-47.667 -113.834 -81 -162.501s-70.833 -91.834 -112.5 -129.501s-83.834 -68.834 -126.501 -93.501z" />
    <glyph glyph-name="asterisk" unicode="*" horiz-adv-x="465" 
d="M145 616c-2 4.66699 -2.33301 10.502 -1 17.502s4 14 8 21s8.83301 13.167 14.5 18.5s11.5 8.66602 17.5 9.99902l100 -87c0 -12.667 -4.66699 -21.334 -14 -26.001zM183 444.002c-5.33301 0.666992 -10.667 3.50098 -16 8.50098s-10 11 -14 18s-7 14.167 -9 21.5
s-2 13.666 0 18.999l125 43c10 -6 15 -14 15 -24zM353.999 389.003c-3.33301 -4.66699 -8.33496 -7.83301 -15.002 -9.5s-14 -2.5 -22 -2.5s-15.667 0.833008 -23 2.5s-12.666 4.5 -15.999 8.5l23 130c10.667 5.33301 21.334 5.33301 32.001 0zM484.997 511.004
c2.66699 -4.66699 3.16699 -10.667 1.5 -18s-4.5 -14.5 -8.5 -21.5s-8.66699 -13.167 -14 -18.5s-11 -8.33301 -17 -9l-98 84c0 10.667 4.33301 19 13 25zM447.997 683.004c5.33301 -0.666992 10.667 -3.50098 16 -8.50098s10 -11 14 -18s6.83301 -14.167 8.5 -21.5
s1.5 -14 -0.5 -20l-124 -47c-9.33301 6.66699 -14 15.334 -14 26.001zM276.998 737.003c2.66699 4.66699 7.50098 8 14.501 10s14.5 3 22.5 3s15.667 -1 23 -3s12.666 -5.33301 15.999 -10l-22 -130c-10 -6.66699 -20.333 -6.66699 -31 0z" />
    <glyph glyph-name="plus" unicode="+" 
d="M37 370h198v210h53v-210h199v-53h-199v-215h-53v215h-198v53z" />
    <glyph glyph-name="comma" unicode="," horiz-adv-x="283" 
d="M-36 -149c14 4.66699 27.6689 11.835 41.002 21.502s25.5 20.5 36.5 32.5s20 25.167 27 39.5s11.5 28.5 13.5 42.5c-6.66699 7.33301 -15.834 14.666 -27.501 21.999s-22.167 12.666 -31.5 15.999c-0.666992 12.667 1.66602 25 6.99902 37s12 22.667 20 32
s16.5 16.833 25.5 22.5s17.167 8.83398 24.5 9.50098c22.667 -3.33301 39.667 -11.333 51 -24s17 -31.667 17 -57s-5.5 -50 -16.5 -74s-25.333 -46 -43 -66s-38 -37.333 -61 -52s-46.5 -25.334 -70.5 -32.001z" />
    <glyph glyph-name="hyphen" unicode="-" horiz-adv-x="425" 
d="M85 313h282l-13 -63h-283z" />
    <glyph glyph-name="period" unicode="." horiz-adv-x="271" 
d="M29 57c0 20 6.33301 36 19 48s29 18 49 18c20.667 0 37.334 -6 50.001 -18s19 -28 19 -48c0 -19.333 -6.33301 -35 -19 -47s-29.334 -18 -50.001 -18c-20 0 -36.333 6 -49 18s-19 27.667 -19 47z" />
    <glyph glyph-name="slash" unicode="/" horiz-adv-x="344" 
d="M327 712l42 -18l-365 -824l-41 19z" />
    <glyph glyph-name="zero" unicode="0" 
d="M19 203c0 39.333 2.99609 79.332 8.99609 119.999s14.833 79.834 26.5 117.501s26.334 73 44.001 106s38.334 61.833 62.001 86.5s50.334 44 80.001 58s62.167 21 97.5 21c39.333 0 71.166 -7.16699 95.499 -21.5s43.333 -32.333 57 -54s22.834 -44.834 27.501 -69.501
s7 -47.334 7 -68.001c0 -59.333 -6.66699 -119.166 -20 -179.499s-33.166 -115.166 -59.499 -164.499s-59.5 -89.5 -99.5 -120.5s-86.667 -46.5 -140 -46.5c-39.333 0 -71.333 7.16699 -96 21.5s-43.667 32.333 -57 54s-22.333 45 -27 70s-7 48.167 -7 69.5z
M114.996 198.999c0 -19.333 1.5 -39 4.5 -59s8.16699 -38.167 15.5 -54.5s17.333 -29.833 30 -40.5s28.667 -16 48 -16c36 0 67.5 14.333 94.5 43s49.5 65.834 67.5 111.501s31.5 96.334 40.5 152.001s13.5 110.5 13.5 164.5c0 20 -1.5 40 -4.5 60
s-8.16699 38.167 -15.5 54.5s-17.333 29.666 -30 39.999s-28.667 15.833 -48 16.5c-36.667 -0.666992 -68.5 -15.834 -95.5 -45.501s-49.5 -67.5 -67.5 -113.5s-31.333 -96.667 -40 -152s-13 -109 -13 -161z" />
    <glyph glyph-name="one" unicode="1" 
d="M378 0l-292.001 -0.000976562l6 29c18 8 36.167 14.667 54.5 20s36.833 10 55.5 14l104 491l19 59c-19.333 -7.33301 -40 -12.5 -62 -15.5s-43.667 -4.16699 -65 -3.5v24c32.667 10 67 22.333 103 37s70.333 33.667 103 57h25l-137 -649
c32.667 -7.33301 63.334 -18.666 92.001 -33.999z" />
    <glyph glyph-name="two" unicode="2" 
d="M182 505h-25c-3.33301 19.333 -6.16602 42 -8.49902 68s-3.16602 50.667 -2.49902 74c28 19.333 57.333 35 88 47s65 18 103 18c33.333 0 61.166 -3.66699 83.499 -11s40.333 -17.5 54 -30.5s23.5 -28 29.5 -45s9 -35.167 9 -54.5c0 -38.667 -11.5 -78.5 -34.5 -119.5
s-52 -81.333 -87 -121s-73.167 -77.667 -114.5 -114s-80 -68.833 -116 -97.5l-50 -39v-4l56 6h172l73 112h25c-0.666992 -16 -2 -32.833 -4 -50.5s-4.5 -35.167 -7.5 -52.5s-6.16699 -33.833 -9.5 -49.5l-9 -41.5h-413l7 32l72 60l88.5 79.5c31 29 61.833 60.167 92.5 93.5
s58.167 67.166 82.5 101.499s44.166 68.833 59.499 103.5s23 68 23 100c0 26.667 -8.16699 48.334 -24.5 65.001s-40.5 25 -72.5 25c-28 0 -53.333 -4 -76 -12z" />
    <glyph glyph-name="three" unicode="3" 
d="M204 35c27.333 0 51.6709 5.49902 73.0039 16.499s39.166 25.5 53.499 43.5s25.166 38.5 32.499 61.5s10.666 46.5 9.99902 70.5c0.666992 40.667 -10.166 69.5 -32.499 86.5s-53.833 25.5 -94.5 25.5h-60l1 25l212 227l45 35v4l-54 -6h-162l-61 -102h-25
c0.666992 28.667 2.16699 59.5 4.5 92.5s6.16602 61.5 11.499 85.5h386l-1 -31l-206 -223l-59 -44v-2l35 7c54 -4.66699 93.5 -20.667 118.5 -48s37.5 -65.333 37.5 -114c0 -34 -5.5 -66.667 -16.5 -98s-28.167 -58.666 -51.5 -81.999s-53.333 -42 -90 -56s-81 -21 -133 -21
c-15.333 0 -31.5 1.16699 -48.5 3.5s-33.333 5.83301 -49 10.5s-30 10 -43 16s-23.5 13 -31.5 21l46 90h20l13 -18l17 -23l17.5 -24l14.5 -21c6.66699 -1.33301 15.667 -3 27 -5s25.666 -3 42.999 -3z" />
    <glyph glyph-name="four" unicode="4" 
d="M415 0h-259l5 29c17.333 5.33301 34 10 50 14s32 7.33301 48 10l29 140h-305l5 23l475 496h27l-99 -467h128l-12 -52h-127l-30 -140c11.333 -2.66699 23 -6 35 -10s23.667 -8.66699 35 -14zM354 502l29 72h-3l-53 -72l-217 -231l-47 -33l73 7h164z" />
    <glyph glyph-name="five" unicode="5" 
d="M541 755l25.001 -0.00292969c-2 -10 -4.83301 -21.167 -8.5 -33.5s-7.66699 -24.666 -12 -36.999s-9 -24.166 -14 -35.499s-9.5 -20.666 -13.5 -27.999h-247l-64 -193h49c64 0 113.5 -14.333 148.5 -43s52.5 -70.667 52.5 -126c0 -40 -6.66699 -76.667 -20 -110
s-32.166 -62 -56.499 -86s-53.666 -42.5 -87.999 -55.5s-72.833 -19.5 -115.5 -19.5c-16 0 -31.833 1.16699 -47.5 3.5s-30.834 5.83301 -45.501 10.5s-27.834 10.167 -39.501 16.5s-21.5 13.166 -29.5 20.499l47 90h20c3.33301 -4.66699 7.16602 -10.667 11.499 -18
l13.5 -23l14 -24c4.66699 -8 9 -15 13 -21c6.66699 -1.33301 14 -3 22 -5s18 -3 30 -3c32 0 59.667 5.5 83 16.5s42.5 25.833 57.5 44.5s26.167 40 33.5 64s11 48.667 11 74c0 44 -14.5 75.333 -43.5 94s-69.5 27.334 -121.5 26.001l-71 -1l113 347h239z" />
    <glyph glyph-name="six" unicode="6" 
d="M500 264c0 -31.333 -5.50195 -63.3301 -16.502 -95.9971s-27.833 -62.334 -50.5 -89.001s-51.334 -48.5 -86.001 -65.5s-75.667 -25.5 -123 -25.5c-23.333 0 -46.166 3.16699 -68.499 9.5s-42.166 17.166 -59.499 32.499s-31.166 35.333 -41.499 60
s-15.5 55.667 -15.5 93c0 54 11 108.833 33 164.5s53.667 108 95 157s91.5 92.333 150.5 130s125.5 65.5 199.5 83.5l4 -30c-88 -32 -161.833 -76.167 -221.5 -132.5s-104.5 -126.833 -134.5 -211.5c16 19.333 38.833 36.166 68.5 50.499s62.5 21.5 98.5 21.5
c58 0 100.5 -14 127.5 -42s40.5 -64.667 40.5 -110zM403.998 255.003c0 35.333 -8.16895 62.333 -24.502 81s-44.5 28 -84.5 28c-30 0 -57.667 -7.66699 -83 -23s-45.666 -33 -60.999 -53c-2 -5.33301 -4 -12.5 -6 -21.5s-3.66699 -18.167 -5 -27.5s-2.5 -18.5 -3.5 -27.5
s-1.5 -15.833 -1.5 -20.5c0 -20.667 1.5 -40.5 4.5 -59.5s8.5 -35.667 16.5 -50s18.833 -25.833 32.5 -34.5s30.834 -13 51.501 -13c28.667 0 53.334 7.5 74.001 22.5s37.667 33.667 51 56s23.166 46.333 29.499 72s9.5 49.167 9.5 70.5z" />
    <glyph glyph-name="seven" unicode="7" 
d="M129 521h-25.002c1.33301 28.667 3.33301 59.667 6 93s6.33398 62 11.001 86h414v-29c-47.333 -57.333 -88.666 -112.833 -123.999 -166.5s-67 -107.5 -95 -161.5s-53.333 -109.167 -76 -165.5s-45 -115.5 -67 -177.5h-100c41.333 95.333 89.333 191.5 144 288.5
s119 194.167 193 291.5l40 48l-53 -5h-207z" />
    <glyph glyph-name="eight" unicode="8" 
d="M12 136c0 49.333 17.499 92.666 52.499 129.999s85.833 65.666 152.5 84.999c-32.667 23.333 -57.167 47.666 -73.5 72.999s-24.5 54.333 -24.5 87c0 28 5.16699 54.333 15.5 79s25.166 46 44.499 64s43 32.167 71 42.5s59.667 15.5 95 15.5
c56.667 0 98.667 -12.333 126 -37s41 -57.667 41 -99c0 -20 -4.16699 -39.667 -12.5 -59s-20.166 -37.666 -35.499 -54.999s-34 -33 -56 -47s-46.333 -25.667 -73 -35c18.667 -12.667 35.334 -25.167 50.001 -37.5s27.167 -25.666 37.5 -39.999s18.333 -30.166 24 -47.499
s8.5 -37.333 8.5 -60c0 -25.333 -5.33301 -50.5 -16 -75.5s-26.667 -47.167 -48 -66.5s-48.166 -35 -80.499 -47s-69.833 -18 -112.5 -18c-58.667 0 -104.334 13.5 -137.001 40.5s-49 62.833 -49 107.5zM368.999 180c0 17.333 -3.33496 32.999 -10.002 46.999
s-15.667 27.167 -27 39.5s-25 24.166 -41 35.499s-33.333 22.666 -52 33.999c-29.333 -15.333 -53.166 -31.666 -71.499 -48.999s-32.666 -34.666 -42.999 -51.999s-17.333 -34.166 -21 -50.499s-5.5 -30.833 -5.5 -43.5c0 -32 10 -57.833 30 -77.5s47 -29.5 81 -29.5
c28.667 0 53.167 4.5 73.5 13.5s36.833 20.5 49.5 34.5s22 29.667 28 47s9 34.333 9 51zM204.997 527.999c0 -13.333 3.16797 -26.3311 9.50098 -38.998s14.5 -24.834 24.5 -36.501s21.5 -22.5 34.5 -32.5s26.5 -19 40.5 -27c40 30 68.833 60 86.5 90s26.167 59 25.5 87
c0.666992 26.667 -6.33301 49.167 -21 67.5s-39.667 27.5 -75 27.5c-20 0 -37.833 -3.66699 -53.5 -11s-28.834 -17.333 -39.501 -30s-18.667 -27.334 -24 -44.001s-8 -34 -8 -52z" />
    <glyph glyph-name="nine" unicode="9" 
d="M61 442c0 31.333 5.50391 63.3301 16.5039 95.9971s27.833 62.334 50.5 89.001s51.167 48.5 85.5 65.5s75.166 25.5 122.499 25.5c23.333 0 46.166 -3.16699 68.499 -9.5s42.166 -17.166 59.499 -32.499s31.333 -35.5 42 -60.5s16 -55.833 16 -92.5
c0 -54 -11 -108.833 -33 -164.5s-53.833 -108 -95.5 -157s-92 -92.333 -151 -130s-125.5 -65.5 -199.5 -83.5l-4 29c88.667 32 162.667 76.167 222 132.5s104 126.833 134 211.5c-16 -19.333 -38.667 -36.166 -68 -50.499s-62 -21.5 -98 -21.5
c-58.667 0 -101.334 14 -128.001 42s-40 65 -40 111zM157.004 450.997c0 -35.333 8.00293 -62.499 24.0029 -81.499s44 -28.5 84 -28.5c30 0 57.667 7.83301 83 23.5s45.666 33.5 60.999 53.5c2 5.33301 4 12.5 6 21.5s3.83301 18.167 5.5 27.5s3 18.333 4 27
s1.5 15.667 1.5 21c0 20.667 -1.66699 40.5 -5 59.5s-9 35.667 -17 50s-18.833 25.666 -32.5 33.999s-30.834 12.5 -51.501 12.5c-28.667 0 -53.334 -7.5 -74.001 -22.5s-37.5 -33.5 -50.5 -55.5s-22.667 -45.833 -29 -71.5s-9.5 -49.167 -9.5 -70.5z" />
    <glyph glyph-name="colon" unicode=":" horiz-adv-x="323" 
d="M126 442c0 20 6.33301 36 19 48s29 18 49 18c20.667 0 37.334 -6 50.001 -18s19 -28 19 -48c0 -19.333 -6.33301 -35 -19 -47s-29.334 -18 -50.001 -18c-20 0 -36.333 6 -49 18s-19 27.667 -19 47zM76 57c0 20 6.33301 36 19 48s29 18 49 18
c20.667 0 37.334 -6 50.001 -18s19 -28 19 -48c0 -19.333 -6.33301 -35 -19 -47s-29.334 -18 -50.001 -18c-20 0 -36.333 6 -49 18s-19 27.667 -19 47z" />
    <glyph glyph-name="semicolon" unicode=";" horiz-adv-x="312" 
d="M121 442c0 20 6.33301 36 19 48s29 18 49 18c20.667 0 37.334 -6 50.001 -18s19 -28 19 -48c0 -19.333 -6.33301 -35 -19 -47s-29.334 -18 -50.001 -18c-20 0 -36.333 6 -49 18s-19 27.667 -19 47zM-3 -149c14 4.66699 27.6689 11.835 41.002 21.502s25.5 20.5 36.5 32.5
s20 25.167 27 39.5s11.5 28.5 13.5 42.5c-6.66699 7.33301 -15.834 14.666 -27.501 21.999s-22.167 12.666 -31.5 15.999c-0.666992 12.667 1.66602 25 6.99902 37s12 22.667 20 32s16.5 16.833 25.5 22.5s17.167 8.83398 24.5 9.50098
c22.667 -3.33301 39.667 -11.333 51 -24s17 -31.667 17 -57s-5.5 -50 -16.5 -74s-25.333 -46 -43 -66s-38 -37.333 -61 -52s-46.5 -25.334 -70.5 -32.001z" />
    <glyph glyph-name="less" unicode="&#x3c;" 
d="M44 324v31l385 235l25 -44l-250 -151l-86 -40l85 -31l265 -156l-40 -65z" />
    <glyph glyph-name="equal" unicode="=" 
d="M13 450h450v-53h-450v53zM13 290h450v-53h-450v53z" />
    <glyph glyph-name="greater" unicode="&#x3e;" 
d="M480 369v-31l-385 -235l-24 44l250 151l85 40l-84 31l-266 156l40 65z" />
    <glyph glyph-name="question" unicode="?" horiz-adv-x="494" 
d="M194 519l-25.002 -0.00195312l-4.5 32c-1.66699 12 -3.16699 24.667 -4.5 38s-2 26.833 -2 40.5s0.666992 27.167 2 40.5c28.667 15.333 57.5 26.166 86.5 32.499s60.5 9.5 94.5 9.5c53.333 0 94.333 -11.833 123 -35.5s43 -56.5 43 -98.5
c0 -33.333 -7 -62.166 -21 -86.499s-31.667 -46.333 -53 -66s-44.666 -38 -69.999 -55s-49.333 -34.667 -72 -53s-42.334 -38.5 -59.001 -60.5s-26.667 -47.667 -30 -77h-20c-2.66699 34.667 1.16602 65 11.499 91s23.833 49.5 40.5 70.5s35.334 40.333 56.001 58
s39.834 35.334 57.501 53.001s32.5 36 44.5 55s18.333 40.833 19 65.5c-0.666992 30 -9.5 52 -26.5 66s-39.167 21 -66.5 21c-21.333 0 -39.166 -1.66699 -53.499 -5s-24.833 -7.66602 -31.5 -12.999zM117.998 56.998c0 20 6.33301 36 19 48s29 18 49 18
c20.667 0 37.334 -6 50.001 -18s19 -28 19 -48c0 -19.333 -6.33301 -35 -19 -47s-29.334 -18 -50.001 -18c-20 0 -36.333 6 -49 18s-19 27.667 -19 47z" />
    <glyph glyph-name="at" unicode="@" horiz-adv-x="1007" 
d="M655 474c24.667 11.333 49.668 16.6709 75.001 16.0039l-51 -286c-4 -22 -6.83301 -42 -8.5 -60s-1.66699 -33.5 0 -46.5s5.33398 -23 11.001 -30s14.167 -10.5 25.5 -10.5c22 0 44.667 6.16699 68 18.5s44.833 30.166 64.5 53.499s35.667 51.666 48 84.999
s18.5 70.666 18.5 111.999c0 50.667 -9.5 96.667 -28.5 138s-45.333 76.5 -79 105.5s-73 51.333 -118 67s-93.167 23.5 -144.5 23.5c-61.333 0 -116.5 -10.833 -165.5 -32.5s-90.833 -51.334 -125.5 -89.001s-61.334 -82 -80.001 -133s-28 -105.5 -28 -163.5
c0 -59.333 9.66699 -111.833 29 -157.5s46.5 -84.334 81.5 -116.001s76.667 -55.667 125 -72s101.5 -24.5 159.5 -24.5c19.333 0 41.333 2.33301 66 7s47 11.667 67 21l16 -44c-23.333 -13.333 -49 -22.666 -77 -27.999s-59 -8 -93 -8c-57.333 0 -112 8.66699 -164 26
s-97.833 43.333 -137.5 78s-71.167 78 -94.5 130s-35 112.667 -35 182c0 72.667 12 138.334 36 197.001s56.833 108.667 98.5 150s90.5 73.166 146.5 95.499s116 33.5 180 33.5c60 0 115.833 -8.83301 167.5 -26.5s96.5 -43 134.5 -76s67.5 -73.333 88.5 -121
s31.5 -101.834 31.5 -162.501c0 -43.333 -7.33301 -84.333 -22 -123s-34.834 -72.667 -60.501 -102s-55.167 -52.666 -88.5 -69.999s-68.333 -26 -105 -26c-20 0 -37 3.16699 -51 9.5s-24.667 16.666 -32 30.999s-11.166 32.833 -11.499 55.5s3.16699 50 10.5 82h-4
c-7.33301 -21.333 -17.5 -42.5 -30.5 -63.5s-27.833 -40 -44.5 -57s-34.5 -30.833 -53.5 -41.5s-38.167 -16 -57.5 -16c-40 0 -70.833 13.833 -92.5 41.5s-32.5 64.5 -32.5 110.5c0 42.667 7.16699 84.334 21.5 125.001s33.666 77 57.999 109s52.5 57.667 84.5 77
s65.667 29 101 29c24 0 43 -2 57 -6s29 -9.66699 45 -17zM638.001 426.005c-10.667 6.66699 -21.5 11.667 -32.5 15s-25.167 4.66602 -42.5 3.99902c-25.333 0.666992 -49.333 -7.83301 -72 -25.5s-42.334 -40.167 -59.001 -67.5s-29.834 -57.166 -39.501 -89.499
s-14.5 -63.5 -14.5 -93.5c0 -32 5 -57 15 -75s29 -27 57 -27c12.667 0 26.334 6.16699 41.001 18.5s29.167 28.5 43.5 48.5s28.333 42.5 42 67.5s25.834 50.167 36.501 75.5z" />
    <glyph glyph-name="A" unicode="A" horiz-adv-x="674" 
d="M176 0l-225.001 0.000976562l6 29c26 10.667 52 18.667 78 24l395 659h26l113 -659c12 -2.66699 24.167 -5.83398 36.5 -9.50098s23.5 -8.5 33.5 -14.5l-5 -29h-254l5 29c30 11.333 59.333 19.333 88 24l-30 183h-235l-107 -183c28.667 -4 55.334 -12 80.001 -24z
M236.999 288.001h198l-32 212l-2 86h-2l-40 -88z" />
    <glyph glyph-name="B" unicode="B" horiz-adv-x="605" 
d="M-20 0l4.99707 28.999c30 12.667 59.333 20.667 88 24l125 593c-13.333 2.66699 -26.333 6.16699 -39 10.5s-25.334 9.16602 -38.001 14.499l7 29h106c24.667 0 49.334 1 74.001 3s55.667 3 93 3c26.667 0 52 -2.33301 76 -7s45 -12 63 -22s32.333 -23.167 43 -39.5
s16 -36.5 16 -60.5c0 -23.333 -3.5 -45.5 -10.5 -66.5s-17.833 -40.333 -32.5 -58s-33.167 -33.167 -55.5 -46.5s-48.5 -24 -78.5 -32v-4c15.333 -1.33301 31 -4.66602 47 -9.99902s30.5 -13.166 43.5 -23.499s23.5 -23.333 31.5 -39s12 -34.167 12 -55.5
c0 -35.333 -6.66699 -68 -20 -98s-33.166 -56.167 -59.499 -78.5s-59.5 -39.833 -99.5 -52.5s-86.667 -19 -140 -19c-23.333 0 -49.166 1 -77.499 3s-56.166 3 -83.499 3h-96zM255.997 45.999c27.333 -0.666992 53.3311 3.00195 77.998 11.002s46.334 19.667 65.001 35
s33.5 34.166 44.5 56.499s16.5 47.833 16.5 76.5c0 22 -3.83301 40 -11.5 54s-18.667 24.667 -33 32s-31.5 12.333 -51.5 15s-42.333 4 -67 4h-76l-58 -276c8.66699 -2.66699 19.334 -4.83398 32.001 -6.50098s33 -2.16699 61 -1.5zM281.995 382.001
c11.333 0 24.833 0.499023 40.5 1.49902s29.167 2.16699 40.5 3.5c52.667 18.667 89.167 43.834 109.5 75.501s30.5 66.167 30.5 103.5c0 26 -9.33301 47.167 -28 63.5s-50 24.5 -94 24.5c-21.333 0 -39.5 -0.5 -54.5 -1.5s-27.5 -2.16699 -37.5 -3.5l-57 -267h50z" />
    <glyph glyph-name="C" unicode="C" horiz-adv-x="635" 
d="M557 182l24.9961 -0.0078125c0 -18.667 -1.83301 -42.167 -5.5 -70.5s-9.16699 -55.833 -16.5 -82.5c-13.333 -7.33301 -27.666 -13.666 -42.999 -18.999s-31.333 -9.66602 -48 -12.999s-33 -5.66602 -49 -6.99902s-31 -2 -45 -2c-56.667 0 -104.667 8 -144 24
s-71.166 37 -95.499 63s-42 55 -53 87s-16.5 64 -16.5 96c0 68 9.66699 129.833 29 185.5s46.833 103.334 82.5 143.001s79 70.5 130 92.5s108.5 33 172.5 33c44 0 81.333 -3 112 -9s56.334 -14.333 77.001 -25c-2 -10.667 -4.83301 -23.167 -8.5 -37.5s-8 -29.5 -13 -45.5
s-10.167 -31.667 -15.5 -47l-15 -42h-26l-21 144c-8.66699 3.33301 -21.834 5.83301 -39.501 7.5s-34.834 2.5 -51.501 2.5c-44 0 -84.667 -8.5 -122 -25.5s-69.666 -42.167 -96.999 -75.5s-48.666 -75 -63.999 -125s-23 -108 -23 -174
c0 -41.333 7.16699 -76.166 21.5 -104.499s32.333 -51.166 54 -68.499s45.167 -29.666 70.5 -36.999s49.333 -10.666 72 -9.99902c22.667 -0.666992 41.834 1 57.501 5s27.167 8.33301 34.5 13z" />
    <glyph glyph-name="D" unicode="D" horiz-adv-x="702" 
d="M-20 0l5.00098 29.0029c27.333 11.333 56.666 19.333 87.999 24l125 593c-14.667 3.33301 -28.5 7.16602 -41.5 11.499s-24.833 8.83301 -35.5 13.5l7 29h101c11.333 0 24.833 0.333008 40.5 1s31.667 1.5 48 2.5l47.5 3c15.333 1 28 1.5 38 1.5
c53.333 0 98.666 -6.33301 135.999 -19s67.5 -29.834 90.5 -51.501s39.667 -47.334 50 -77.001s15.5 -61.5 15.5 -95.5s-2.83301 -69.5 -8.5 -106.5s-15.167 -73 -28.5 -108s-31.166 -68.167 -53.499 -99.5s-50.333 -58.833 -84 -82.5s-73.5 -42.5 -119.5 -56.5
s-99 -21 -159 -21c-10 0 -21.833 0.5 -35.5 1.5s-28.167 2 -43.5 3l-46 3c-15.333 1 -29.333 1.5 -42 1.5h-95zM383.001 656.003c-17.333 0 -35.0049 -0.333984 -53.0049 -1.00098s-31.667 -1.66699 -41 -3l-128 -606c6.66699 -0.666992 14.834 -1.16699 24.501 -1.5l29 -1
c9.66699 -0.333008 18.334 -0.666016 26.001 -0.999023s13.5 -0.166016 17.5 0.500977c62.667 -0.666992 115.167 11.666 157.5 36.999s76.333 58.5 102 99.5s43.834 87 54.501 138s16 102.167 16 153.5c0 26 -3 50.333 -9 73s-16.667 42.167 -32 58.5
s-36.166 29.333 -62.499 39s-60.166 14.5 -101.499 14.5z" />
    <glyph glyph-name="E" unicode="E" horiz-adv-x="572" 
d="M601 700c-5.33301 -26.667 -11.665 -53.667 -18.998 -81s-16 -54.333 -26 -81h-26l-17 110h-219l-55 -265h162l55 74h25c-5.33301 -33.333 -11.5 -66.833 -18.5 -100.5s-15.167 -67.5 -24.5 -101.5h-25l-23 76h-163l-58 -279h229l75 120h25
c-1.33301 -26 -4 -53.833 -8 -83.5s-9.66699 -59.167 -17 -88.5h-493l5 29c27.333 11.333 56.666 19.333 87.999 24l125 593c-13.333 3.33301 -26.333 7 -39 11s-25.334 8.66699 -38.001 14l7 29h473z" />
    <glyph glyph-name="F" unicode="F" horiz-adv-x="535" 
d="M159 53c28 -4 54.667 -12.001 80 -24.001l-5 -29h-254l5 29c12 5.33301 24.667 10 38 14s26.666 7.33301 39.999 10l125 593c-13.333 4 -25.666 8 -36.999 12s-21.333 8.33301 -30 13l7 29h469c-6 -26 -12.667 -52.667 -20 -80s-16 -54.666 -26 -81.999h-26l-17 110h-224
l-60 -285h175l54 74h25c-3.33301 -30 -8.83301 -63.5 -16.5 -100.5s-16.167 -70.833 -25.5 -101.5h-25l-22 77h-176z" />
    <glyph glyph-name="G" unicode="G" horiz-adv-x="679" 
d="M571 48c-14.667 -8.66699 -31.333 -16.6719 -50 -24.0049s-37.834 -13.666 -57.501 -18.999s-39.334 -9.5 -59.001 -12.5s-37.834 -4.5 -54.501 -4.5c-88.667 0 -158.167 23.5 -208.5 70.5s-75.5 113.833 -75.5 200.5c0 67.333 9.5 128.833 28.5 184.5
s46.5 103.334 82.5 143.001s79.833 70.5 131.5 92.5s110.167 33 175.5 33c44 0 81.667 -2.83301 113 -8.5s57.333 -14.167 78 -25.5c-2 -10 -4.83301 -22.333 -8.5 -37s-8 -30 -13 -46l-15.5 -47.5c-5.33301 -15.667 -10.333 -29.5 -15 -41.5h-26l-21 144
c-12 3.33301 -27 5.83301 -45 7.5s-35.333 2.5 -52 2.5c-51.333 0 -96.166 -10.5 -134.499 -31.5s-70.166 -49.5 -95.499 -85.5s-44.333 -78.167 -57 -126.5s-19 -100.166 -19 -155.499c0 -47.333 6.66699 -85.5 20 -114.5s29.833 -51.5 49.5 -67.5s40.667 -26.667 63 -32
s42.833 -7.66602 61.5 -6.99902c26.667 -0.666992 51.334 3.33301 74.001 12s38.334 16.334 47.001 23.001l44 202c-17.333 1.33301 -33.333 4.33301 -48 9s-29 9.66699 -43 15l7 29h245l-6 -29c-7.33301 -4.66699 -16.333 -9 -27 -13s-24.334 -7.66699 -41.001 -11z" />
    <glyph glyph-name="H" unicode="H" horiz-adv-x="719" 
d="M233 0l-253.002 0.000976562l5 29c14.667 6.66699 29.334 11.834 44.001 15.501s29.334 6.5 44.001 8.5l125 593c-30 6 -55.667 14.333 -77 25l7 29h253l-6 -29c-11.333 -6 -24.333 -11 -39 -15s-28.667 -7.33301 -42 -10l-55 -261h314l56 261
c-13.333 3.33301 -25.833 6.83301 -37.5 10.5s-22.834 8.5 -33.501 14.5l7 29h253l-6 -29c-13.333 -6.66699 -27.5 -11.834 -42.5 -15.501s-29.833 -6.83398 -44.5 -9.50098l-126 -593c30 -5.33301 55.333 -13.333 76 -24l-5 -29h-253l5 29
c12.667 5.33301 25.834 10 39.501 14s27.5 7.33301 41.5 10l59 280h-315l-58 -280c12 -2.66699 24 -6 36 -10s23 -8.66699 33 -14z" />
    <glyph glyph-name="I" unicode="I" horiz-adv-x="343" 
d="M255 0h-256.002l5 29c29.333 12 58 20 86 24l125 593c-13.333 2.66699 -26 6.16699 -38 10.5s-24.333 9.16602 -37 14.499l7 29h256l-6 -29c-13.333 -5.33301 -27.666 -10.166 -42.999 -14.499s-29.666 -7.83301 -42.999 -10.5l-125 -593
c13.333 -2.66699 26.5 -6 39.5 -10s24.5 -8.66699 34.5 -14z" />
    <glyph glyph-name="J" unicode="J" horiz-adv-x="331" 
d="M136 700l255 0.000976562l-5 -29c-13.333 -6 -27.666 -11 -42.999 -15s-29.666 -7.33301 -42.999 -10l-118 -560c-10 -46 -23.5 -84 -40.5 -114s-35.333 -54.167 -55 -72.5s-39.334 -32 -59.001 -41s-37.167 -15.167 -52.5 -18.5l-7 15
c13.333 10.667 25.5 21.5 36.5 32.5s21.167 24.667 30.5 41s18 36.166 26 59.499s15.667 52.333 23 87l120 571c-28.667 6.66699 -53.334 15 -74.001 25z" />
    <glyph glyph-name="K" unicode="K" horiz-adv-x="637" 
d="M476 700h227.001l-7 -29c-12 -6 -25.333 -11 -40 -15s-28.334 -7.33301 -41.001 -10l-259 -270l41.5 -73l50 -83l55 -87l56.5 -84l43 -24l-5 -25h-121l-29 24c-30 46 -59 95.667 -87 149s-54.333 107.333 -79 162h-53l-59 -282c27.333 -5.33301 50.333 -13.333 69 -24
l-5 -29h-253l5 29c30 12 59.333 20 88 24l125 593c-14.667 2.66699 -28.5 6 -41.5 10s-24.833 9 -35.5 15l7 29h253l-6 -29c-22.667 -10.667 -49.667 -19 -81 -25l-58 -277l60 14l240 263c-13.333 3.33301 -25.333 6.83301 -36 10.5s-21 8.5 -31 14.5z" />
    <glyph glyph-name="L" unicode="L" horiz-adv-x="538" 
d="M128 700l274 0.00292969l-7 -29c-16.667 -6 -33.5 -11.167 -50.5 -15.5s-33.833 -7.5 -50.5 -9.5l-125 -594h229l93 161h26c-1.33301 -14 -3 -30.167 -5 -48.5s-4.5 -37.333 -7.5 -57s-6.33301 -38.834 -10 -57.501s-7.5 -35.334 -11.5 -50.001h-503l5 29
c18 7.33301 34 12.666 48 15.999s27.333 6 40 8l125 593c-31.333 6 -57 14.333 -77 25z" />
    <glyph glyph-name="M" unicode="M" horiz-adv-x="857" 
d="M787 0l-248.002 0.00195312l5 29c14.667 5.33301 29 9.83301 43 13.5s28.667 7.16699 44 10.5l94 450l30 117h-8l-54 -107l-316 -513h-26l-87 513l-11 117h-9l-26 -127l-95 -450c12 -2.66699 24 -6 36 -10s23.667 -8.66699 35 -14l-6 -29h-208l5 29
c26.667 11.333 55.667 19.666 87 24.999l125 592c-13.333 2.66699 -26.666 6.16699 -39.999 10.5s-25.666 9.16602 -36.999 14.499l6 29h208l71 -457l12 -103h1l52 105l282 455h184l-7 -29c-26 -11.333 -53 -19.666 -81 -24.999l-126 -594
c13.333 -2.66699 26 -5.83398 38 -9.50098s22.667 -8.16699 32 -13.5z" />
    <glyph glyph-name="N" unicode="N" horiz-adv-x="723" 
d="M588 700l213.001 0.000976562l-6 -29c-13.333 -9.33301 -28 -17.333 -44 -24s-31.333 -12 -46 -16l-137 -643h-54l-251 551l-21 78h-3l-10 -78l-100 -475c12 -3.33301 24 -8 36 -14s23 -13 33 -21l-6 -29h-212l5 29c28.667 17.333 58.667 29 90 35l122 573
c-12.667 5.33301 -24.834 11 -36.501 17s-22.167 12 -31.5 18l5 28h166l215 -475l30 -86h4l16 86l86 406c-26.667 11.333 -49.667 24.666 -69 39.999z" />
    <glyph glyph-name="O" unicode="O" horiz-adv-x="730" 
d="M66 278c0 60.667 9.16699 117.333 27.5 170s44.833 98.5 79.5 137.5s76.334 69.833 125.001 92.5s103.667 34 165 34c48.667 0 89.667 -8 123 -24s60.166 -37 80.499 -63s35 -55.833 44 -89.5s13.5 -68.5 13.5 -104.5c0 -53.333 -7.5 -106.5 -22.5 -159.5
s-38.167 -100.5 -69.5 -142.5s-70.833 -76 -118.5 -102s-104.167 -39 -169.5 -39c-48 0 -89.5 7.83301 -124.5 23.5s-63.833 36.667 -86.5 63s-39.5 57 -50.5 92s-16.5 72.167 -16.5 111.5zM173 276.999c0 -36.667 4.83105 -69.665 14.498 -98.998s23 -54.333 40 -75
s37 -36.5 60 -47.5s48.167 -16.167 75.5 -15.5c48.667 -0.666992 89.167 11.166 121.5 35.499s58.333 55.666 78 93.999s33.667 80.666 42 126.999s12.5 91.5 12.5 135.5c0 34 -3.83301 65 -11.5 93s-19.167 52 -34.5 72s-34.166 35.5 -56.499 46.5
s-48.166 16.5 -77.499 16.5c-46 0 -85.667 -12 -119 -36s-60.833 -54.667 -82.5 -92s-37.5 -78.666 -47.5 -123.999s-15 -89 -15 -131z" />
    <glyph glyph-name="P" unicode="P" horiz-adv-x="585" 
d="M169 53c17.333 -2 33.5 -5.16895 48.5 -9.50195s28.833 -9.16602 41.5 -14.499l-5 -29h-274l5 29c15.333 6.66699 30.166 11.667 44.499 15s28.833 6.33301 43.5 9l125 593c-14.667 2.66699 -28.334 6.16699 -41.001 10.5s-24.667 9.16602 -36 14.499l7 29h90
c26.667 0 55.834 1.33301 87.501 4s61.834 4 90.501 4c32 0 61.5 -3.16699 88.5 -9.5s50 -16.333 69 -30s33.833 -30.667 44.5 -51s16 -44.5 16 -72.5c0 -39.333 -7.16699 -75.666 -21.5 -108.999s-35 -62.333 -62 -87s-59.5 -44 -97.5 -58s-80.333 -21 -127 -21h-16.5
c-7.66699 0 -16 0.166992 -25 0.5s-18 0.833008 -27 1.5s-16.5 1.33398 -22.5 2.00098zM370 655.998c-16 0 -30.166 -0.501953 -42.499 -1.50195s-23.166 -2.16699 -32.499 -3.5l-68 -324c3.33301 -0.666992 8.16602 -1.33398 14.499 -2.00098s13 -1.16699 20 -1.5
s13.667 -0.666016 20 -0.999023s11.5 -0.5 15.5 -0.5c69.333 0 121.666 19.833 156.999 59.5s53 93.834 53 162.501c0 16.667 -1.83301 31.834 -5.5 45.501s-10.667 25.5 -21 35.5s-24.333 17.667 -42 23s-40.5 8 -68.5 8z" />
    <glyph glyph-name="Q" unicode="Q" horiz-adv-x="750" 
d="M742 -115c-32 -24 -63.667 -44.499 -95 -61.499s-63.333 -25.167 -96 -24.5c-27.333 0 -54.833 5 -82.5 15s-57 22 -88 36l-99.5 44c-35.333 15.333 -74 28.666 -116 39.999l35 20c31.333 4 61.5 4 90.5 0s57.333 -10 85 -18s55.5 -16.5 83.5 -25.5
s56.667 -16.333 86 -22s60 -8.16699 92 -7.5s66.333 6.66699 103 18zM66 278.001c0 60.667 9.16699 117.333 27.5 170s44.833 98.5 79.5 137.5s76.334 69.833 125.001 92.5s103.667 34 165 34c48.667 0 89.667 -8 123 -24s60.166 -37 80.499 -63s35 -55.833 44 -89.5
s13.5 -68.5 13.5 -104.5c0 -53.333 -7.5 -106.5 -22.5 -159.5s-38.167 -100.5 -69.5 -142.5s-70.833 -76 -118.5 -102s-104.167 -39 -169.5 -39c-48 0 -89.5 7.83301 -124.5 23.5s-63.833 36.667 -86.5 63s-39.5 57 -50.5 92s-16.5 72.167 -16.5 111.5zM173 277
c0 -36.667 4.83105 -69.665 14.498 -98.998s23 -54.333 40 -75s37 -36.5 60 -47.5s48.167 -16.167 75.5 -15.5c48.667 -0.666992 89.167 11.166 121.5 35.499s58.333 55.666 78 93.999s33.667 80.666 42 126.999s12.5 91.5 12.5 135.5c0 34 -3.83301 65 -11.5 93
s-19.167 52 -34.5 72s-34.166 35.5 -56.499 46.5s-48.166 16.5 -77.499 16.5c-46 0 -85.667 -12 -119 -36s-60.833 -54.667 -82.5 -92s-37.5 -78.666 -47.5 -123.999s-15 -89 -15 -131z" />
    <glyph glyph-name="R" unicode="R" horiz-adv-x="627" 
d="M169 53c29.333 -5.33301 55.668 -13.3359 79.001 -24.0029l-5 -29h-263l5 29c16 6.66699 31.167 11.667 45.5 15s28.5 6.33301 42.5 9l125 593c-16 4 -30.5 8 -43.5 12s-24.167 8.33301 -33.5 13l7 29h88c26.667 0 56.167 1.33301 88.5 4s63.166 4 92.499 4
c66 0 115.167 -14.167 147.5 -42.5s48.5 -68.5 48.5 -120.5c0 -26 -4.5 -51 -13.5 -75s-21.667 -45.667 -38 -65s-36.333 -36.166 -60 -50.499s-50.5 -25.166 -80.5 -32.499c19.333 -45.333 40.5 -90.333 63.5 -135l71.5 -133l47 -29l-5 -25h-114l-34 28
c-14 23.333 -26.5 46.333 -37.5 69s-21 45.334 -30 68.001s-17 46 -24 70s-13.5 49 -19.5 75h-96zM364.002 655.997c-15.333 0 -28.499 -0.499023 -39.499 -1.49902s-21.167 -2.16699 -30.5 -3.5l-62 -298h71c35.333 -0.666992 65.166 4.66602 89.499 15.999
s44 26.5 59 45.5s26 40.5 33 64.5s10.5 48.667 10.5 74c0.666992 36 -9.5 62.167 -30.5 78.5s-54.5 24.5 -100.5 24.5z" />
    <glyph glyph-name="S" unicode="S" horiz-adv-x="527" 
d="M121 69c7.33301 -6 19.6699 -12.5 37.0029 -19.5s35.666 -10.167 54.999 -9.5c22 -0.666992 43.333 1 64 5s39.334 11 56.001 21s30 23.167 40 39.5s15 36.833 15 61.5c0 27.333 -6.5 50.333 -19.5 69s-29.167 35.167 -48.5 49.5s-40.166 28 -62.499 41
s-43.166 27.5 -62.499 43.5s-35.5 34.833 -48.5 56.5s-19.5 48.5 -19.5 80.5c0 30.667 5.5 58.5 16.5 83.5s27.333 46.5 49 64.5s48.167 32 79.5 42s67 15 107 15c40.667 0 77 -3.16699 109 -9.5s57 -14.166 75 -23.499c-2.66699 -11.333 -6.5 -24.5 -11.5 -39.5
l-15.5 -46.5c-5.33301 -16 -11 -31.5 -17 -46.5l-16 -39.5h-26l-12 137c-11.333 5.33301 -25.833 9.33301 -43.5 12s-36.834 4 -57.501 4c-20 0 -38.833 -2.33301 -56.5 -7s-33 -11.834 -46 -21.501s-23.167 -21.834 -30.5 -36.501s-11 -32 -11 -52
c0 -26.667 6.5 -48.834 19.5 -66.501s29.167 -33.5 48.5 -47.5s40.166 -27.5 62.499 -40.5s43.166 -27.833 62.499 -44.5s35.5 -36.834 48.5 -60.501s19.5 -52.834 19.5 -87.501c0 -31.333 -6.16699 -59.666 -18.5 -84.999s-30 -47.166 -53 -65.499s-51.333 -32.5 -85 -42.5
s-71.834 -15 -114.501 -15c-21.333 0 -41.833 1.33301 -61.5 4s-37.667 6.33398 -54 11.001s-30.833 9.83398 -43.5 15.501s-22.334 11.167 -29.001 16.5c2.66699 12 6.5 26.167 11.5 42.5s10.5 32.833 16.5 49.5l18 48.5c6 15.667 11.667 29.167 17 40.5h26z" />
    <glyph glyph-name="T" unicode="T" horiz-adv-x="610" 
d="M401 0l-281.001 -0.000976562l5 29c16 6 31.833 10.833 47.5 14.5s32.834 6.83398 51.501 9.50098l126 595h-153l-83 -143h-26c0.666992 13.333 2.16699 28.5 4.5 45.5s4.83301 34.333 7.5 52s5.5 35 8.5 52s6.16699 32.167 9.5 45.5h580
c-2.66699 -13.333 -6 -28.333 -10 -45s-8.33301 -33.834 -13 -51.501s-9.5 -35 -14.5 -52s-9.83301 -32.5 -14.5 -46.5h-26l-21 143h-153l-126 -595c16 -3.33301 31.167 -6.66602 45.5 -9.99902s27.833 -8 40.5 -14z" />
    <glyph glyph-name="U" unicode="U" horiz-adv-x="666" 
d="M112 700h253.998l-6 -29c-26 -11.333 -53 -19.666 -81 -24.999l-85 -397c-7.33301 -35.333 -9.33301 -65.5 -6 -90.5s11.333 -45.5 24 -61.5s29.334 -27.667 50.001 -35s44.667 -11 72 -11c54 0 97.167 15 129.5 45s55.166 77.333 68.499 142l85 399
c-29.333 10 -53.333 21.333 -72 34l6 29h214l-7 -29c-11.333 -7.33301 -24.666 -14 -39.999 -20s-30.333 -10.667 -45 -14l-85 -401c-18.667 -87.333 -51.5 -150 -98.5 -188s-107.5 -57 -181.5 -57c-44 0 -81.167 6.33301 -111.5 19s-54.166 30.167 -71.499 52.5
s-28.333 49 -33 80s-3 64.5 5 100.5l86 403c-13.333 2.66699 -27 6.16699 -41 10.5s-26 9.16602 -36 14.499z" />
    <glyph glyph-name="V" unicode="V" horiz-adv-x="674" 
d="M634 646c-15.333 3.33301 -29.6689 7.00098 -43.002 11.001s-26 8.66699 -38 14l7 29h222l-6 -29c-11.333 -5.33301 -23.166 -10 -35.499 -14s-26.166 -7.66699 -41.499 -11l-362 -646l-55 -12l-116 658c-15.333 3.33301 -28.833 7.16602 -40.5 11.499
s-21.834 8.83301 -30.501 13.5l6 29h263l-6 -29c-12 -5.33301 -25.667 -10 -41 -14s-30.666 -7.66699 -45.999 -11l73 -457l5 -80h2l37 82z" />
    <glyph glyph-name="W" unicode="W" horiz-adv-x="925" 
d="M887 646c-13.333 2.66699 -27.1689 6 -41.502 10s-27.166 9 -38.499 15l6 29h220l-6 -29c-12.667 -6.66699 -25.5 -11.667 -38.5 -15l-38.5 -10l-304 -646l-64 -12l-46 544l-271 -532l-62 -12l-37 658c-26 6 -49.667 14.333 -71 25l6 29h258l-6 -29
c-13.333 -5.33301 -27.166 -10 -41.499 -14s-29.5 -7.66699 -45.5 -11l13 -405l-3 -130h2l61 132l233 457h35l42 -457l5 -130h2l53 132z" />
    <glyph glyph-name="X" unicode="X" horiz-adv-x="661" 
d="M499 700l230.002 -0.000976562l-7 -29c-12 -5.33301 -24.833 -10 -38.5 -14s-27.5 -7.66699 -41.5 -11l-238 -271l137 -322c30.667 -5.33301 55.667 -13.333 75 -24l-5 -29h-266l5 29c25.333 12 52.333 20 81 24l-101 251l-210 -252c13.333 -2 26.5 -4.5 39.5 -7.5
s25.167 -8.16699 36.5 -15.5l-6 -29h-230l6 29c13.333 6.66699 26.666 11.667 39.999 15s26.666 6.33301 39.999 9l262 299l-124 294c-13.333 3.33301 -26 6.83301 -38 10.5s-24 8.5 -36 14.5l6 29h266l-6 -29c-20.667 -9.33301 -48 -17.666 -82 -24.999l89 -226l187 226
l-38 10c-12.667 3.33301 -25.667 8.33301 -39 15z" />
    <glyph glyph-name="Y" unicode="Y" horiz-adv-x="635" 
d="M520 700l222.996 0.00292969l-7 -29c-13.333 -6.66699 -26.666 -11.834 -39.999 -15.501s-26.666 -6.83398 -39.999 -9.50098l-263 -348l-52 -245c24.667 -3.33301 48 -11.333 70 -24l-5 -29h-254l5 29c26.667 12 56 20 88 24l52 244l-129 349
c-14.667 2.66699 -28.167 6.16699 -40.5 10.5s-24.166 9.16602 -35.499 14.499l7 29h264l-6 -29l-36 -13c-13.333 -4.66699 -28.666 -8.66699 -45.999 -12l101 -294l212 294c-14 3.33301 -27.167 7 -39.5 11s-23.833 8.66699 -34.5 14z" />
    <glyph glyph-name="Z" unicode="Z" horiz-adv-x="603" 
d="M529 192l26 0.00195312c-1.33301 -14 -3 -29.333 -5 -46s-4.33301 -33.5 -7 -50.5s-5.5 -33.833 -8.5 -50.5s-6.16699 -31.667 -9.5 -45h-520v51l526 597h-291l-91 -140h-26c0.666992 14 2.16699 29.333 4.5 46s4.83301 33.667 7.5 51s5.5 34.166 8.5 50.499
s6.16699 31.166 9.5 44.499h497v-52l-526 -596h314z" />
    <glyph glyph-name="bracketleft" unicode="[" horiz-adv-x="307" 
d="M190 700h189l-9 -43h-104l-180 -844h104l-8 -43h-189z" />
    <glyph glyph-name="backslash" unicode="\" horiz-adv-x="382" 
d="M409 -107l-41 -23l-415 820l42 22z" />
    <glyph glyph-name="bracketright" unicode="]" horiz-adv-x="307" 
d="M131 -230h-188l9 43h103l180 844h-104l8 43h189z" />
    <glyph glyph-name="asciicircum" unicode="^" horiz-adv-x="519" 
d="M291 711h33l170 -277h-89l-88 151l-23 67l-33 -68l-99 -150h-57z" />
    <glyph glyph-name="underscore" unicode="_" horiz-adv-x="410" 
d="M-45 -143h410v-53h-410v53z" />
    <glyph glyph-name="grave" unicode="`" horiz-adv-x="323" 
d="M325 593l-22.001 -17l-166 149v20c4 3.33301 10.5 6.5 19.5 9.5s18.833 5.5 29.5 7.5s20.834 3.5 30.501 4.5s17.167 1.16699 22.5 0.5z" />
    <glyph glyph-name="a" unicode="a" horiz-adv-x="535" 
d="M189 50c18 0 36.001 8.49902 54.001 25.499s35 37.5 51 61.5s30.333 49 43 75s22.667 47.667 30 65l32 171c-9.33301 6.66699 -18.333 11.334 -27 14.001s-20.667 4 -36 4c-30.667 0 -58.5 -9.5 -83.5 -28.5s-46.333 -43.5 -64 -73.5s-31.334 -63.333 -41.001 -100
s-14.5 -72.667 -14.5 -108c0 -34 4.16699 -60.167 12.5 -78.5s22.833 -27.5 43.5 -27.5zM347.001 195.999c-8.66699 -24 -19.499 -48.3311 -32.499 -72.998s-28 -47 -45 -67s-35.833 -36.333 -56.5 -49s-42.667 -19 -66 -19c-69.333 0 -104 50.333 -104 151
c0 46.667 6.66699 92.167 20 136.5s32.666 83.833 57.999 118.5s56.166 62.5 92.499 83.5s77.5 31.5 123.5 31.5c16.667 0 30 -1.5 40 -4.5s22 -7.5 36 -13.5c26.667 14 54.667 21 84 21l-90 -457h73v-25c-13.333 -10.667 -29.333 -19.334 -48 -26.001s-37 -10 -55 -10
c-19.333 0 -33.166 4.16699 -41.499 12.5s-12.5 17.166 -12.5 26.499c0 12 2.33301 31.667 7 59s11.667 62 21 104h-4z" />
    <glyph glyph-name="b" unicode="b" horiz-adv-x="526" 
d="M164 682l-70.001 9.00293v23c10.667 4 22.334 8 35.001 12s25.5 7.83301 38.5 11.5s25.833 6.66699 38.5 9s24.334 4.16602 35.001 5.49902l21 -11l-88 -417h5c12 24 25.167 47.333 39.5 70s29.666 42.667 45.999 60s33.5 31.333 51.5 42s37 16 57 16
c35.333 0 63.333 -12.333 84 -37s31 -63 31 -115c0 -51.333 -7.16699 -99.5 -21.5 -144.5s-34.5 -84.333 -60.5 -118s-57.333 -60.334 -94 -80.001s-77.334 -29.5 -122.001 -29.5c-32.667 0 -63.167 4.16699 -91.5 12.5s-49.166 18.166 -62.499 29.499zM330.999 450.003
c-17.333 0 -34.333 -7.66504 -51 -22.998s-32.167 -33.833 -46.5 -55.5s-27.333 -44.334 -39 -68.001l-29.5 -59.5l-38 -192c10 -6.66699 22.5 -11.834 37.5 -15.501s29.833 -5.5 44.5 -5.5c26 0 50.5 9 73.5 27s43.167 41.667 60.5 71s31 62.5 41 99.5
s14.667 74.5 14 112.5c0.666992 32 -4.33301 58.167 -15 78.5s-28 30.5 -52 30.5z" />
    <glyph glyph-name="c" unicode="c" horiz-adv-x="428" 
d="M382 89c-7.33301 -12.667 -16.667 -24.999 -28 -36.999s-24.666 -22.833 -39.999 -32.5s-32.5 -17.334 -51.5 -23.001s-39.833 -8.5 -62.5 -8.5c-49.333 0 -88.333 15.667 -117 47s-43 74 -43 128c0 48 7.66699 93.167 23 135.5s36.166 79.333 62.499 111
s57.333 56.667 93 75s73.834 27.5 114.501 27.5c25.333 0 46 -2 62 -6s28 -9.66699 36 -17c0.666992 -7.33301 0.166992 -15.5 -1.5 -24.5s-4.33398 -17.833 -8.00098 -26.5s-8.33398 -16.667 -14.001 -24s-11.5 -12.333 -17.5 -15l-68 70
c-22.667 -0.666992 -45.167 -7.66699 -67.5 -21s-42.333 -32.333 -60 -57s-32 -54.5 -43 -89.5s-16.167 -74.5 -15.5 -118.5c-0.666992 -46 8.5 -79.667 27.5 -101s44.833 -32 77.5 -32c14 0 27.167 2 39.5 6s23.833 9 34.5 15s20.334 12.333 29.001 19l23 18z" />
    <glyph glyph-name="d" unicode="d" horiz-adv-x="535" 
d="M191 50c18 0 35.998 8.50098 53.998 25.501s35 37.5 51 61.5s30.333 49 43 75s22.667 47.667 30 65l32 171c-10 6.66699 -19.167 11.167 -27.5 13.5s-20.166 3.83301 -35.499 4.5c-32 -0.666992 -60.667 -10.5 -86 -29.5s-46.666 -43.333 -63.999 -73
s-30.5 -62.834 -39.5 -99.501s-13.5 -72.667 -13.5 -108c0 -34 4.16699 -60.167 12.5 -78.5s22.833 -27.5 43.5 -27.5zM348.998 196.001c-8.66699 -24 -19.667 -48.3291 -33 -72.9961s-28.5 -47 -45.5 -67s-35.667 -36.333 -56 -49s-42.166 -19 -65.499 -19
c-69.333 0 -104 50.667 -104 152c0 47.333 6.66699 93.166 20 137.499s32.666 83.666 57.999 117.999s56 61.833 92 82.5s77 31 123 31c17.333 0 30.333 -1.16699 39 -3.5s19.667 -6.5 33 -12.5l38 189l-70 9v25c10 4 21 7.83301 33 11.5s24.5 7 37.5 10
s26.167 5.83301 39.5 8.5s25.666 4.66699 36.999 6l21 -8l-137 -689h73v-25c-13.333 -10.667 -29.333 -19.334 -48 -26.001s-37 -10 -55 -10c-19.333 0 -33.166 4.16699 -41.499 12.5s-12.5 17.166 -12.5 26.499c0 12 2.33301 31.667 7 59s11.667 62 21 104h-4z" />
    <glyph glyph-name="e" unicode="e" horiz-adv-x="454" 
d="M392 89c-6 -12.667 -14.668 -25 -26.001 -37s-24.666 -22.833 -39.999 -32.5s-32.666 -17.334 -51.999 -23.001s-40 -8.5 -62 -8.5c-55.333 0 -97.833 15.833 -127.5 47.5s-44.5 75.5 -44.5 131.5c0 47.333 6.66699 92 20 134s32 78.667 56 110s53.167 56 87.5 74
s72.5 27 114.5 27c32 0 59.5 -8.16699 82.5 -24.5s34.5 -40.5 34.5 -72.5c0 -47.333 -23.5 -84.666 -70.5 -111.999s-122.833 -45 -227.5 -53c-2.66699 -11.333 -4.5 -22.333 -5.5 -33s-1.5 -21 -1.5 -31c0 -40 10.167 -72.667 30.5 -98s50.166 -38 89.499 -38
c12.667 0 25.167 2 37.5 6s24 9 35 15s21 12.333 30 19l23.5 18zM286.999 469c-28.667 -0.666992 -55.333 -14.167 -80 -40.5s-45.667 -71.5 -63 -135.5c64.667 2 115 13.167 151 33.5s54 48.5 54 84.5c0 14 -4.16699 27 -12.5 39s-24.833 18.333 -49.5 19z" />
    <glyph glyph-name="f" unicode="f" horiz-adv-x="297" 
d="M129 450h-73.001v26c13.333 7.33301 27.5 13.833 42.5 19.5s29.167 10.167 42.5 13.5l7 35c8.66699 41.333 20.5 75.5 35.5 102.5s32.5 48.333 52.5 64s42 26.5 66 32.5s49.667 9 77 9c11.333 0 24.833 -1.33301 40.5 -4s28.834 -6.66699 39.501 -12
c-1.33301 -14.667 -4.83301 -29.834 -10.5 -45.501s-15.167 -29.167 -28.5 -40.5l-76 62c-12 -3.33301 -23 -7 -33 -11s-19.5 -11.5 -28.5 -22.5s-17.5 -26.5 -25.5 -46.5s-15.667 -47.333 -23 -82l-10 -50h111c3.33301 -16.667 0 -33.334 -10 -50.001h-111l-64 -407
c-7.33301 -47.333 -19.666 -86.666 -36.999 -117.999s-35.833 -56.666 -55.5 -75.999s-38.834 -33.666 -57.501 -42.999s-33 -15.333 -43 -18l-9 22c8 4 17.667 11.167 29 21.5s22.5 24.166 33.5 41.499s21.333 38.5 31 63.5s17.167 54.167 22.5 87.5z" />
    <glyph glyph-name="g" unicode="g" horiz-adv-x="489" 
d="M280 512c32 0 58.1689 -3.99707 78.502 -11.9971s36.166 -16.667 47.499 -26c6 5.33301 14 10.666 24 15.999s20.667 10.333 32 15s23 9 35 13l34 11c2 -3.33301 3.66699 -8.33301 5 -15s1.83301 -14 1.5 -22s-1.66602 -16.167 -3.99902 -24.5
s-5.83301 -15.833 -10.5 -22.5l-103 7c2 -6 4 -12.833 6 -20.5s3 -16.167 3 -25.5c0 -26.667 -5.5 -51.334 -16.5 -74.001s-26.167 -42.167 -45.5 -58.5s-41.833 -29.166 -67.5 -38.499s-52.834 -14 -81.501 -14c-11.333 0 -20.5 0.166992 -27.5 0.5s-14.833 1.5 -23.5 3.5
c-6 -6.66699 -14.167 -14.5 -24.5 -23.5s-15.5 -18.833 -15.5 -29.5c0 -11.333 7.33301 -20 22 -26s33.167 -11.5 55.5 -16.5l72.5 -16c26 -5.66699 50.167 -13.334 72.5 -23.001s40.833 -22.167 55.5 -37.5s22 -35.666 22 -60.999c0 -31.333 -8.83301 -59.5 -26.5 -84.5
s-41 -46.333 -70 -64s-62 -31.334 -99 -41.001s-74.5 -14.5 -112.5 -14.5c-30.667 0 -57 3.16699 -79 9.5s-40 15 -54 26s-24.333 23.5 -31 37.5s-10 28.667 -10 44c0 18.667 4.16699 36 12.5 52s19.5 31.167 33.5 45.5s30 27.5 48 39.5s36.667 23.333 56 34
c-10 5.33301 -18.167 12.5 -24.5 21.5s-9.5 19.167 -9.5 30.5c0 10 3.33301 20.5 10 31.5s14.5 21.5 23.5 31.5s18 18.667 27 26s15.833 12.666 20.5 15.999c-8 2 -16.167 5.66699 -24.5 11s-16.166 12.333 -23.499 21s-13.333 18.667 -18 30s-7 24 -7 38
c0 26 5.5 50 16.5 72s26.167 40.833 45.5 56.5s41.666 28 66.999 37s52.666 13.5 81.999 13.5zM165.002 -168.997c20.667 0 41.168 3.00098 61.501 9.00098s38.666 14.5 54.999 25.5s29.666 24.667 39.999 41s15.5 34.833 15.5 55.5c0 20 -8.16699 35.5 -24.5 46.5
s-36.166 19.833 -59.499 26.5s-47.5 12.167 -72.5 16.5s-46.5 9.5 -64.5 15.5c-31.333 -22.667 -52.833 -46.334 -64.5 -71.001s-17.167 -47.667 -16.5 -69c-0.666992 -30 10.833 -53.5 34.5 -70.5s55.5 -25.5 95.5 -25.5zM272.003 472.004
c-19.333 0 -36.501 -3.66699 -51.501 -11s-27.833 -17.166 -38.5 -29.499s-18.667 -26.833 -24 -43.5s-8 -34.334 -8 -53.001c0 -25.333 8.16699 -44 24.5 -56s33.833 -18 52.5 -18c20 0 37.167 3.5 51.5 10.5s26.333 16.5 36 28.5s16.834 25.667 21.501 41s7 31.333 7 48
c0 24.667 -5.83301 44.667 -17.5 60s-29.5 23 -53.5 23z" />
    <glyph glyph-name="h" unicode="h" horiz-adv-x="543" 
d="M103 691l0.000976562 23.002c10 4 21.167 8.16699 33.5 12.5s25.166 8.33301 38.499 12s26.333 6.66699 39 9s24.667 3.83301 36 4.5l21 -9l-90 -420h5c12.667 26.667 27 51.5 43 74.5s32.833 43 50.5 60s36.167 30.333 55.5 40s39 14.5 59 14.5
c30.667 0 52.834 -8.83301 66.501 -26.5s20.5 -39.5 20.5 -65.5c0 -18 -1.66699 -37.333 -5 -58s-7.33301 -40.667 -12 -60l-57 -246h74v-26c-13.333 -10.667 -29.333 -19.334 -48 -26.001s-37.334 -10 -56.001 -10c-19.333 0 -32.666 4 -39.999 12s-11 16.667 -11 26
c0 12 1.66699 25.5 5 40.5l10 45.5l36 167c4.66699 20.667 8.83398 40 12.501 58s5.5 35.333 5.5 52c0 15.333 -3.33301 28.333 -10 39s-15.667 16 -27 16c-20.667 0 -40.667 -7.33301 -60 -22s-37.333 -32.334 -54 -53.001s-31.334 -42.167 -44.001 -64.5
s-22.334 -40.833 -29.001 -55.5l-53 -255h-84l137 682z" />
    <glyph glyph-name="i" unicode="i" horiz-adv-x="277" 
d="M71 451l-0.000976562 25.0029c10 4 21.333 8.16699 34 12.5s25.667 8.16602 39 11.499s26 6.16602 38 8.49902s22.667 3.5 32 3.5l18 -12l-94 -444h74v-26c-14 -10.667 -30.333 -19.334 -49 -26.001s-37 -10 -55 -10c-19.333 0 -33.166 4.33301 -41.499 13
s-12.5 18.667 -12.5 30c0 13.333 1 26.333 3 39s4.66699 26.667 8 42l70 323zM150.999 673.003c0 17.333 5.33301 31 16 41s24.667 15 42 15c18.667 0 33.334 -5 44.001 -15s16 -23.667 16 -41c0 -16.667 -5.33301 -29.667 -16 -39s-25.334 -14 -44.001 -14
c-17.333 0 -31.333 4.66699 -42 14s-16 22.333 -16 39z" />
    <glyph glyph-name="j" unicode="j" horiz-adv-x="275" 
d="M133 442l-59.999 8.99805v25c20.667 9.33301 43.667 17.666 69 24.999s48.333 11 69 11l20 -12l-97 -457c-10 -47.333 -23.833 -86.666 -41.5 -117.999s-36.167 -56.666 -55.5 -75.999s-37.833 -33.666 -55.5 -42.999s-31.834 -15.333 -42.501 -18l-12 22
c8 4 17.333 10.833 28 20.5s21.334 23 32.001 40s21.167 38.167 31.5 63.5s19.166 55.333 26.499 90zM146.001 672.998c0 17.333 5.33301 31 16 41s24.667 15 42 15c18.667 0 33.334 -5 44.001 -15s16 -23.667 16 -41c0 -16.667 -5.33301 -29.667 -16 -39
s-25.334 -14 -44.001 -14c-17.333 0 -31.333 4.66699 -42 14s-16 22.333 -16 39z" />
    <glyph glyph-name="k" unicode="k" horiz-adv-x="481" 
d="M299 45c-21.333 36 -39.333 70.1699 -54 102.503l-42 90.5l-36 10l-47 -248h-86l136 682l-70 9v25c19.333 8.66699 42.833 16.5 70.5 23.5s53.167 11.167 76.5 12.5l21 -11l-94 -467h29c14 8.66699 28.5 19.334 43.5 32.001s29.333 25.667 43 39
s25.834 26.166 36.501 38.499s19 22.833 25 31.5c0.666992 4.66699 1.16699 11 1.5 19s0.333008 16.167 0 24.5l-1 24c-0.333008 7.66699 -0.833008 13.5 -1.5 17.5c24.667 8.66699 48.667 13 72 13c24 0 44 -4.33301 60 -13c-8.66699 -22 -22 -44 -40 -66
s-37.333 -42.5 -58 -61.5s-41 -36.333 -61 -52s-36 -27.834 -48 -36.501c4.66699 -12.667 12.167 -29.167 22.5 -49.5s21.666 -41.5 33.999 -63.5s25.333 -43.333 39 -64s26.167 -37.667 37.5 -51h63v-26c-13.333 -10.667 -27.833 -19.334 -43.5 -26.001
s-32.167 -10 -49.5 -10c-16 0 -30.333 3.66699 -43 11s-24.667 20.666 -36 39.999z" />
    <glyph glyph-name="l" unicode="l" horiz-adv-x="277" 
d="M174 682l-70.999 9.00098v25c9.33301 4 20.166 8 32.499 12s25.333 7.83301 39 11.5s27.167 6.66699 40.5 9s25.333 3.5 36 3.5l20 -11l-138 -685h73v-26c-13.333 -10.667 -29.5 -19.334 -48.5 -26.001s-37.5 -10 -55.5 -10c-19.333 0 -33.5 4.33301 -42.5 13
s-13.5 18.667 -13.5 30c0 13.333 1 26.333 3 39s4.66699 26.667 8 42z" />
    <glyph glyph-name="m" unicode="m" horiz-adv-x="800" 
d="M633 300c4 16 7.8291 32.6729 11.4961 50.0059s5.83398 31.666 6.50098 42.999c-0.666992 17.333 -3.5 31.166 -8.5 41.499s-15.167 15.5 -30.5 15.5c-16 0 -32.333 -6.33301 -49 -19s-32.5 -28.667 -47.5 -48s-28.667 -40.333 -41 -63s-22.5 -44 -30.5 -64l-61 -256h-80
l63 281c4.66699 20.667 8.66699 40.5 12 59.5s5 38.833 5 59.5c0 15.333 -2.66699 27.5 -8 36.5s-14.666 13.5 -27.999 13.5s-28 -6.33301 -44 -19s-31.667 -28.667 -47 -48s-29.5 -40.333 -42.5 -63s-23.5 -44.334 -31.5 -65.001l-53 -255h-86l93 442l-61 9v25
c22 11.333 45.833 20.166 71.5 26.499s47.834 9.5 66.501 9.5l21 -12l-44 -177h4c8 18.667 19.167 39 33.5 61s30.833 42.5 49.5 61.5s38.667 34.833 60 47.5s42.666 19 63.999 19c8 0 16 -1.33301 24 -4s15 -7.5 21 -14.5s11 -16.5 15 -28.5s6 -27.333 6 -46
c0 -14.667 -1.5 -30.334 -4.5 -47.001s-6.5 -33 -10.5 -49c10 22.667 22.667 45.167 38 67.5s32 42.5 50 60.5s37.167 32.667 57.5 44s41.166 17 62.499 17c25.333 0 44.5 -8 57.5 -24s19.5 -38 19.5 -66c0 -21.333 -2 -41.5 -6 -60.5l-13 -61.5l-65 -244h74v-26
c-13.333 -10.667 -29.666 -19.334 -48.999 -26.001s-37.666 -10 -54.999 -10c-19.333 0 -32.666 4.33301 -39.999 13s-11 19 -11 31c0 19.333 4.66699 46 14 80z" />
    <glyph glyph-name="n" unicode="n" horiz-adv-x="552" 
d="M386 285l12.5 57.5039c3.66699 17.667 5.5 35.167 5.5 52.5c0 15.333 -3.5 28.333 -10.5 39s-18.167 16 -33.5 16c-18 0 -36.333 -7.33301 -55 -22s-36 -32.334 -52 -53.001s-30.5 -42.167 -43.5 -64.5s-22.833 -40.833 -29.5 -55.5l-53 -255h-84l88 442l-61 9l2 25
c9.33301 4.66699 19.833 9.16699 31.5 13.5s23.667 8.16602 36 11.499s24.333 6 36 8s22.5 3 32.5 3l20 -12l-38 -177h5c12.667 26.667 27.167 51.5 43.5 74.5s33.666 43 51.999 60s37.5 30.333 57.5 40s40.333 14.5 61 14.5c28 0 48.5 -8.83301 61.5 -26.5
s19.5 -39.834 19.5 -66.501c0 -14.667 -1.66699 -33 -5 -55s-7.33301 -42.667 -12 -62l-57 -246h74v-26c-13.333 -10.667 -29.5 -19.334 -48.5 -26.001s-37.5 -10 -55.5 -10c-19.333 0 -32.666 4 -39.999 12s-11 16.667 -11 26c0 12.667 1.66699 26.5 5 41.5l10 45.5z" />
    <glyph glyph-name="o" unicode="o" horiz-adv-x="509" 
d="M41 186c0 35.333 5.5 72.167 16.5 110.5s27.833 73.5 50.5 105.5s51 58.333 85 79s73.667 31 119 31c52 0 91.167 -16 117.5 -48s39.5 -79.333 39.5 -142c0 -44 -6.33301 -86.167 -19 -126.5s-30.334 -75.833 -53.001 -106.5s-50 -55.167 -82 -73.5
s-67.333 -27.5 -106 -27.5c-51.333 0 -92.166 16.5 -122.499 49.5s-45.5 82.5 -45.5 148.5zM292 469.001c-32.667 -0.666992 -59.3311 -11.333 -79.998 -32s-37 -46.334 -49 -77.001s-20.333 -63.667 -25 -99s-7 -67.666 -7 -96.999c0 -39.333 8.66699 -71.333 26 -96
s40.666 -37 69.999 -37c23.333 0 44.166 8.83301 62.499 26.5s34 41 47 70s23 61.833 30 98.5s10.5 73.667 10.5 111c0 39.333 -6.83301 71 -20.5 95s-35.167 36.333 -64.5 37z" />
    <glyph glyph-name="p" unicode="p" horiz-adv-x="542" 
d="M97 -146c23.333 -4 46.666 -12.334 69.999 -25.001v-29h-157l-9 9l43 199l93 434l-61 9v25c22 9.33301 45.167 17.666 69.5 24.999s47.166 11 68.499 11l20 -12l-41 -176h4c12 26.667 25.167 51.334 39.5 74.001s29.833 42.5 46.5 59.5s34.667 30.333 54 40
s40 14.5 62 14.5c14.667 0 28.667 -2.83301 42 -8.5s25 -14.334 35 -26.001s17.833 -26.167 23.5 -43.5s8.5 -37.333 8.5 -60c0 -51.333 -7.66699 -100.333 -23 -147s-36.166 -87.667 -62.499 -123s-57.166 -63.5 -92.499 -84.5s-73.333 -31.5 -114 -31.5
c-11.333 0 -21 0.333008 -29 1s-15 1.83398 -21 3.50098s-11.833 3.83398 -17.5 6.50098l-18.5 9zM352 449.999c-19.333 0 -37.668 -7.50293 -55.001 -22.5029s-33.5 -33.167 -48.5 -54.5s-28.5 -43.833 -40.5 -67.5s-21.667 -44.5 -29 -62.5l-39 -189
c9.33301 -8 19.166 -13.833 29.499 -17.5s26.833 -5.5 49.5 -5.5c26.667 0 51.834 9.83301 75.501 29.5s44.334 44.834 62.001 75.501s31.667 64.834 42 102.501s15.5 74.834 15.5 111.501c0 32 -5.5 56.667 -16.5 74s-26.167 26 -45.5 26z" />
    <glyph glyph-name="q" unicode="q" horiz-adv-x="515" 
d="M354 -146c22 -4 45.332 -12.3311 69.999 -24.998v-29h-157l-9 8l89 387h-4c-8.66699 -23.333 -19.5 -47.333 -32.5 -72s-28 -47 -45 -67s-35.667 -36.333 -56 -49s-42.166 -19 -65.499 -19c-69.333 0 -104 50.667 -104 152c0 47.333 6.33301 93.166 19 137.499
s31.5 83.666 56.5 117.999s56 61.833 93 82.5s80.167 31 129.5 31c14.667 0 29.5 -1 44.5 -3s29.167 -4.5 42.5 -7.5s25.5 -6.33301 36.5 -10s19.833 -7.16699 26.5 -10.5zM185.999 50.002c18 0 35.8311 8.5 53.498 25.5s34.5 37.5 50.5 61.5s30.333 48.833 43 74.5
s22.667 47.167 30 64.5l33 176c-7.33301 5.33301 -16 9 -26 11s-22.667 3 -38 3c-34 0 -63.667 -9.5 -89 -28.5s-46.5 -43.5 -63.5 -73.5s-29.667 -63.333 -38 -100s-12.166 -72.667 -11.499 -108c-0.666992 -34 3.33301 -60.167 12 -78.5s23.334 -27.5 44.001 -27.5z" />
    <glyph glyph-name="r" unicode="r" horiz-adv-x="385" 
d="M305 439c-17.333 -6.66699 -36.834 -23.5 -58.501 -50.5s-40.834 -63.5 -57.501 -109.5l-60 -279h-86l93 442l-61 9v25c22.667 10.667 46.334 18.834 71.001 24.501s47 9.5 67 11.5l20 -12l-28 -133h4c19.333 44 43 79.167 71 105.5s58 39.5 90 39.5
c8.66699 0 17.334 -0.833008 26.001 -2.5s17 -4.83398 25 -9.50098c0 -6 -1 -13.833 -3 -23.5s-4.83301 -19.5 -8.5 -29.5s-7.66699 -19.5 -12 -28.5s-8.83301 -15.833 -13.5 -20.5z" />
    <glyph glyph-name="s" unicode="s" horiz-adv-x="418" 
d="M255 118c-0.666992 16 -5.16797 29.834 -13.501 41.501s-19 22.834 -32 33.501s-26.833 21.334 -41.5 32.001s-28.5 22.5 -41.5 35.5s-23.667 28 -32 45s-12.5 37.5 -12.5 61.5s4.66699 45 14 63s22.166 33 38.499 45s36 21.167 59 27.5s48.167 9.5 75.5 9.5
c17.333 0 36.833 -1.5 58.5 -4.5s42.167 -10.167 61.5 -21.5c0 -7.33301 -1.33301 -15.833 -4 -25.5s-6.16699 -19 -10.5 -28s-9.16602 -17.333 -14.499 -25s-11 -12.834 -17 -15.501l-74 77c-14 -0.666992 -27 -2.33398 -39 -5.00098s-22.5 -7 -31.5 -13
s-16 -13.833 -21 -23.5s-7.5 -21.834 -7.5 -36.501c0 -17.333 4.33301 -32.166 13 -44.499s19.5 -24 32.5 -35s27 -21.667 42 -32s29 -22 42 -35s23.833 -28 32.5 -45s13 -37.167 13 -60.5c0 -24 -5.5 -45.333 -16.5 -64s-26 -34.5 -45 -47.5s-41 -22.833 -66 -29.5
s-51.5 -10 -79.5 -10s-53.5 2.83301 -76.5 8.5s-41.167 12.834 -54.5 21.501c3.33301 17.333 7.33301 34.166 12 50.499s14.334 31.5 29.001 45.5l90 -83c14 0 27.833 1.66699 41.5 5s26 8.66602 37 15.999s20 16.333 27 27s10.833 23.667 11.5 39z" />
    <glyph glyph-name="t" unicode="t" horiz-adv-x="337" 
d="M54 476c13.333 7.33301 27.5 14.0029 42.5 20.0029s29.833 10.667 44.5 14l16 76c9.33301 7.33301 20.166 13.833 32.499 19.5s25.166 11.167 38.499 16.5l21 -12l-24 -110h124c1.33301 -8 1.33301 -16.333 0 -25s-4.66602 -17 -9.99902 -25h-124l-63 -290
c-2.66699 -12.667 -4.66699 -23.834 -6 -33.501s-2 -18.5 -2 -26.5c0 -17.333 5 -30 15 -38s21 -12 33 -12c16.667 0 34.5 3.16699 53.5 9.5s36.5 13.5 52.5 21.5l11 -18c-6 -8.66699 -15 -17.334 -27 -26.001s-25.5 -16.667 -40.5 -24s-30.667 -13.333 -47 -18
s-31.833 -7 -46.5 -7c-29.333 0 -52.333 6.66699 -69 20s-25 34 -25 62c0 9.33301 0.833008 19.666 2.5 30.999s3.83398 23 6.50098 35l66 314h-76z" />
    <glyph glyph-name="u" unicode="u" horiz-adv-x="542" 
d="M488 55l0.00292969 -24.999c-13.333 -10.667 -29.5 -19.334 -48.5 -26.001s-37.5 -10 -55.5 -10c-19.333 0 -33.166 4 -41.499 12s-12.5 16.667 -12.5 26c0 12 1.66699 32.167 5 60.5s10.666 62.833 21.999 103.5h-4c-8.66699 -18.667 -19.5 -40 -32.5 -64
s-28.5 -46.667 -46.5 -68s-38.5 -39.333 -61.5 -54s-48.5 -22 -76.5 -22c-23.333 0 -43 8.16699 -59 24.5s-24 39.5 -24 69.5c0 14.667 2.33301 36.334 7 65.001s10.334 60 17.001 94l21.5 104.5l20.5 96.5l-61 9v25c10.667 4 22.167 8 34.5 12s24.666 7.66699 36.999 11
s24.166 6.16602 35.499 8.49902s21.666 3.83301 30.999 4.5l22 -12c-10.667 -50 -21.5 -97.5 -32.5 -142.5s-21.167 -92.5 -30.5 -142.5c-3.33301 -16 -6.83301 -33.833 -10.5 -53.5s-5.5 -41.167 -5.5 -64.5c0 -14 3.83301 -25.333 11.5 -34s16.5 -13 26.5 -13
c14.667 0 29.334 4.33301 44.001 13s28.5 20 41.5 34s25.333 29.5 37 46.5s22.167 33.833 31.5 50.5s17.166 32.167 23.499 46.5s11.166 25.833 14.499 34.5l44 225h83l-82 -445h74z" />
    <glyph glyph-name="v" unicode="v" horiz-adv-x="447" 
d="M249 151c24 40 45.334 78.834 64.001 116.501s34.667 75.5 48 113.5c0 7.33301 -0.833008 16.833 -2.5 28.5l-5 35.5c-1.66699 12 -3.5 23.167 -5.5 33.5s-3.66699 17.5 -5 21.5c19.333 8 39.166 12.167 59.499 12.5s38.166 -3.83398 53.499 -12.501
c-10 -41.333 -23.667 -83.5 -41 -126.5s-37.166 -85.833 -59.499 -128.5s-46.666 -84.667 -72.999 -126s-53.833 -81 -82.5 -119l-47 -12l-74 454l-64 8v25c4 2.66699 10 6.16699 18 10.5s16.833 8.5 26.5 12.5s19.667 7.33301 30 10s20.166 4 29.499 4
c14.667 0 25.167 -3.66699 31.5 -11s10.5 -16.333 12.5 -27l46 -325l5 -63h2z" />
    <glyph glyph-name="w" unicode="w" horiz-adv-x="687" 
d="M493 151c24.667 40 45.666 78.667 62.999 116s32.333 75 45 113c0 7.33301 -0.833008 17 -2.5 29l-5 36c-1.66699 12 -3.5 23.167 -5.5 33.5s-3.66699 17.5 -5 21.5c9.33301 4 19.333 7 30 9s21 3 31 3c20 0 37.667 -4 53 -12c-10 -41.333 -23.333 -83.5 -40 -126.5
s-35.667 -85.833 -57 -128.5s-44.666 -84.667 -69.999 -126s-52.333 -81 -81 -119l-47 -12l-42 284v82h-3l-40 -82l-67 -136.5l-68 -135.5l-55 -12l-48 454l-64 8v25c4 2.66699 10 6.16699 18 10.5s16.833 8.5 26.5 12.5s19.667 7.33301 30 10s20.166 4 29.499 4
c14.667 0 25.834 -3.5 33.501 -10.5s12.167 -16.167 13.5 -27.5l27 -316l-4 -72h2l30 73l162 329l34 12l20 -140.5c5.33301 -37 9 -64.167 11 -81.5l16 -120l1 -72h2z" />
    <glyph glyph-name="x" unicode="x" horiz-adv-x="454" 
d="M201 213c-7.33301 -8 -15.835 -16.668 -25.502 -26.001s-19.167 -19 -28.5 -29s-18 -20 -26 -30s-14.333 -19.333 -19 -28c-1.33301 -4.66699 -2.16602 -11.334 -2.49902 -20.001s-0.666016 -17.834 -0.999023 -27.501s-0.5 -18.667 -0.5 -27s0.333008 -14.5 1 -18.5
c-11.333 -4.66699 -22.833 -8 -34.5 -10s-22.834 -3 -33.501 -3c-22 0 -40.333 4.33301 -55 13c6 20 18.333 42.333 37 67s39.334 48.667 62.001 72s44.667 44.5 66 63.5l48 42.5l-68 184l-64 8v25c4 2.66699 9.83301 6.16699 17.5 10.5s16.334 8.5 26.001 12.5
s19.5 7.33301 29.5 10s19.667 4 29 4c14.667 0 25.334 -3.83301 32.001 -11.5s12 -16.5 16 -26.5l49 -174l50.5 52c18.333 19.333 32.166 37.666 41.499 54.999c0.666992 4.66699 1 11.334 1 20.001s-0.333008 17.834 -1 27.501s-1.33398 18.667 -2.00098 27
s-1.33398 14.5 -2.00098 18.5c11.333 4 22.5 7.16699 33.5 9.5s22.167 3.5 33.5 3.5c21.333 0 40 -4.33301 56 -13c-4 -13.333 -10.667 -27.666 -20 -42.999s-20.333 -30.666 -33 -45.999s-26.167 -30.5 -40.5 -45.5l-41.5 -42c-13.333 -13 -25.833 -24.667 -37.5 -35
l-27.5 -24.5l72 -195l65 -8v-25c-4 -2.66699 -9.83301 -6 -17.5 -10s-16 -8 -25 -12s-18.667 -7.33301 -29 -10s-19.833 -4 -28.5 -4c-14 0 -24.667 3.66699 -32 11s-12.666 16.333 -15.999 27z" />
    <glyph glyph-name="y" unicode="y" horiz-adv-x="455" 
d="M88 442l-63.9971 8.00391v25c3.33301 2.66699 8.83301 6 16.5 10s16.5 8 26.5 12s20.333 7.5 31 10.5s20.667 4.5 30 4.5c14 0 24.167 -3.5 30.5 -10.5s11.166 -16.167 14.499 -27.5l83 -350l3 -60h2l23 59c8.66699 18.667 17.5 39.167 26.5 61.5l26.5 67.5
c8.66699 22.667 16.667 45 24 67s13.666 42.333 18.999 61c0 7.33301 -0.833008 17 -2.5 29s-3.5 24 -5.5 36s-4 23.167 -6 33.5s-3.66699 17.5 -5 21.5c9.33301 4 19.333 7 30 9s21 3 31 3c20 0 37.667 -4 53 -12c-20.667 -82.667 -48.834 -165.334 -84.501 -248.001
s-75.167 -166.667 -118.5 -252c-36 -70 -72 -122.333 -108 -157s-76.667 -52 -122 -52c-10 0 -19.5 1.33301 -28.5 4s-18.5 6.66699 -28.5 12c-0.666992 7.33301 0 15.666 2 24.999s5.16699 18.666 9.5 27.999s10 18 17 26s14.833 14.333 23.5 19l81 -42
c4.66699 3.33301 10.667 8.16602 18 14.499s15 15 23 26s16 24.333 24 40s15.667 34.5 23 56.5z" />
    <glyph glyph-name="z" unicode="z" horiz-adv-x="436" 
d="M116 180l220.002 242.995c-30 -2 -62.5 -1.5 -97.5 1.5s-71.167 7.5 -108.5 13.5l-46 -72l-25 6l14 102c4 26 22 39 54 39c24 0 58.833 -3.5 104.5 -10.5s100.167 -12.167 163.5 -15.5l23 25c8.66699 -1.33301 16.834 -4.66602 24.501 -9.99902
s12.167 -12.666 13.5 -21.999l-344 -379c39.333 -7.33301 77.666 -17.166 114.999 -29.499s72 -27.166 104 -44.499l58 66l24 -14l-35 -102c-3.33301 -10 -9.33301 -18.333 -18 -25s-19.334 -10 -32.001 -10s-28.334 4.16699 -47.001 12.5l-63.5 28.5
c-23.667 10.667 -49.167 21.334 -76.5 32.001s-56 18.334 -86 23.001l-41 -44c-8.66699 1.33301 -17 4.66602 -25 9.99902s-12.333 13 -13 23z" />
    <glyph glyph-name="braceleft" unicode="{" horiz-adv-x="351" 
d="M111 112c3.33301 15.333 5.00293 28.3311 5.00293 38.998c0 22 -5.33301 39.167 -16 51.5s-26 18.5 -46 18.5l6 30c12.667 0 24.5 2.66699 35.5 8s21 12.833 30 22.5s16.667 20.834 23 33.501s11.166 26.334 14.499 41.001l51 238c6.66699 32 20 57.667 40 77
s46 29 78 29h90l-8 -43h-49c-18 0 -32.167 -4.5 -42.5 -13.5s-17.833 -24.167 -22.5 -45.5l-49 -232c-4.66699 -22 -12.167 -40.667 -22.5 -56s-21.833 -27.833 -34.5 -37.5s-26 -17 -40 -22s-27 -8.16699 -39 -9.5l-2 -6c10 -1.33301 20 -4.16602 30 -8.49902
s19.167 -10.5 27.5 -18.5s15.166 -17.833 20.499 -29.5s8 -25.5 8 -41.5c0 -10 -1 -20.333 -3 -31l-50 -235c-2 -8 -3 -15.667 -3 -23c0 -24.667 14.333 -36.334 43 -35.001h48l-9 -43h-90c-24.667 0 -43.834 6 -57.501 18s-20.5 30 -20.5 54c0 11.333 1.33301 22.333 4 33z
" />
    <glyph glyph-name="bar" unicode="|" horiz-adv-x="237" 
d="M122 700h52v-830h-52v830z" />
    <glyph glyph-name="braceright" unicode="}" horiz-adv-x="351" 
d="M259 360c-3.33301 -15.333 -5.00488 -28.3291 -5.00488 -38.9961c0 -46.667 20.667 -70 62 -70l-6 -30c-12.667 0 -24.5 -2.83301 -35.5 -8.5s-21 -13.167 -30 -22.5s-16.667 -20.333 -23 -33s-11.166 -26.334 -14.499 -41.001l-51 -240
c-6.66699 -32 -20 -57.667 -40 -77s-46 -29 -78 -29h-90l9 43h48c18 0 32.167 4.33301 42.5 13s17.833 23.667 22.5 45l50 235c4.66699 22 11.667 40.667 21 56s19.833 27.833 31.5 37.5s24 17 37 22s25.5 8.16699 37.5 9.5l1 6
c-9.33301 0.666992 -18.666 3.16699 -27.999 7.5s-17.666 10.166 -24.999 17.499s-13.166 16.666 -17.499 27.999s-6.5 24.666 -6.5 39.999c0 12.667 1.33301 24.667 4 36l49 232c2 8 3 15.333 3 22c0.666992 25.333 -13.666 37.666 -42.999 36.999h-47l8 43h91
c24.667 0 43.667 -6.16699 57 -18.5s20 -30.166 20 -53.499c0 -11.333 -1.33301 -22.333 -4 -33z" />
    <glyph glyph-name="asciitilde" unicode="~" 
d="M66 322c24 36 46.998 60.833 68.998 74.5s43 20.5 63 20.5c16.667 0 33 -3.5 49 -10.5s31.667 -14.833 47 -23.5s30.833 -16.5 46.5 -23.5s31.834 -10.5 48.501 -10.5c12 0 24.5 2.5 37.5 7.5s26.167 13.833 39.5 26.5l13 -21c-19.333 -28 -38.5 -47.833 -57.5 -59.5
s-37.5 -17.5 -55.5 -17.5c-17.333 0 -34.166 3.5 -50.499 10.5s-32.5 14.833 -48.5 23.5s-32 16.5 -48 23.5s-32 10.5 -48 10.5c-14.667 0 -29.5 -4 -44.5 -12s-30.167 -22.333 -45.5 -43z" />
    <glyph glyph-name="uni00A0" unicode="&#xa0;" horiz-adv-x="243" 
 />
    <glyph glyph-name="cent" unicode="&#xa2;" 
d="M430 89c-7.33301 -12 -16.3301 -23.501 -26.9971 -34.501s-23 -21 -37 -30s-29.667 -16.667 -47 -23s-36 -10.166 -56 -11.499l-33 -160h-52l34 160c-56.667 5.33301 -98.334 24 -125.001 56s-40 73.667 -40 125c0 42 7.16699 81.667 21.5 119s33.833 70.833 58.5 100.5
s53.667 54.334 87 74.001s69 33.167 107 40.5l34 155h52l-32 -149c2 0 4 0.166992 6 0.5s4 0.166016 6 -0.500977c12 0 25 -0.5 39 -1.5s27.167 -2.5 39.5 -4.5s23.333 -4.33301 33 -7s16.5 -5.66699 20.5 -9c0.666992 -7.33301 0.166992 -15.5 -1.5 -24.5
s-4.33398 -17.833 -8.00098 -26.5s-8.16699 -16.667 -13.5 -24s-11 -12.333 -17 -15l-68 69c-16.667 0 -32.334 -1 -47.001 -3l-88 -413c34 1.33301 62.333 8 85 20s40.667 24 54 36zM143.003 178.999c-0.666992 -36 6.50098 -64.167 21.501 -84.5s35.167 -33.5 60.5 -39.5
l86 396c-26 -10 -49.5 -23.667 -70.5 -41s-38.833 -37.666 -53.5 -60.999s-25.834 -49.333 -33.501 -78s-11.167 -59.334 -10.5 -92.001z" />
    <glyph glyph-name="sterling" unicode="&#xa3;" 
d="M52 381l84.9971 0.000976562c-5.33301 21.333 -9.16602 42.5 -11.499 63.5s-3.5 38.833 -3.5 53.5c0 32.667 4.5 62.167 13.5 88.5s23.667 48.833 44 67.5s46.5 33 78.5 43s71 15 117 15c40.667 0 77.5 -3.33301 110.5 -10s58.5 -14.667 76.5 -24
c-2.66699 -10.667 -6.5 -23.5 -11.5 -38.5l-16 -46l-17.5 -46.5l-16 -40h-25l-11 137c-12.667 5.33301 -27.5 9.33301 -44.5 12s-36.167 4 -57.5 4c-31.333 0 -58 -5 -80 -15s-38.667 -26 -50 -48c-6.66699 -13.333 -11.334 -28.5 -14.001 -45.5s-3.66699 -32.5 -3 -46.5
c0.666992 -22 2.16699 -42 4.5 -60s5.5 -39.333 9.5 -64h156l-11 -52h-138c0.666992 -7.33301 1.33398 -13.833 2.00098 -19.5s1.16699 -11.334 1.5 -17.001s0.333008 -11.667 0 -18s-1.16602 -14.5 -2.49902 -24.5c-1.33301 -22 -9.33301 -46.167 -24 -72.5
s-36 -49.5 -64 -69.5l-39 -28v-4l55 6h200l73 112h25c-1.33301 -14.667 -3.16602 -30.667 -5.49902 -48s-4.83301 -34.833 -7.5 -52.5s-5.5 -34.667 -8.5 -51s-5.83301 -30.5 -8.5 -42.5h-460l6 31c17.333 6.66699 32.666 13.667 45.999 21s25.333 15.166 36 23.499
s20.5 17.5 29.5 27.5s18.167 21.333 27.5 34c12.667 16.667 22.667 35 30 55s11 37.667 11 53c0 18.667 -1.16699 34.834 -3.5 48.501s-5.16602 25.5 -8.49902 35.5h-107z" />
    <glyph glyph-name="yen" unicode="&#xa5;" 
d="M447 700h220.997l-6 -29c-28.667 -12.667 -55.667 -21 -81 -25l-227 -311h144l-10 -52h-163l-14 -63h163l-10 -52h-163l-24 -115c25.333 -3.33301 48.333 -11.333 69 -24l-5 -29h-254l5 29c26.667 12 56.334 20 89.001 24l24 115h-163l10 52h163l14 63h-163l11 52h142
l-105 311c-14.667 3.33301 -28.167 7 -40.5 11s-24.166 8.66699 -35.499 14l6 29h263l-6 -29c-10.667 -4 -22.667 -8 -36 -12s-28.666 -8.33301 -45.999 -13l91 -295l207 295c-14 3.33301 -27.5 7 -40.5 11s-24.833 8.66699 -35.5 14z" />
    <glyph glyph-name="dieresis" unicode="&#xa8;" horiz-adv-x="488" 
d="M179 662c0 16 5 28.833 15 38.5s23.333 14.5 40 14.5c16 0 29 -4.83301 39 -14.5s15 -22.5 15 -38.5c0 -15.333 -5 -27.666 -15 -36.999s-23 -14 -39 -14c-16.667 0 -30 4.66699 -40 14s-15 21.666 -15 36.999zM381 662c0 16 5 28.833 15 38.5s23 14.5 39 14.5
c16.667 0 30 -4.83301 40 -14.5s15 -22.5 15 -38.5c0 -15.333 -5 -27.666 -15 -36.999s-23.333 -14 -40 -14c-16 0 -29 4.66699 -39 14s-15 21.666 -15 36.999z" />
    <glyph glyph-name="copyright" unicode="&#xa9;" horiz-adv-x="807" 
d="M51 290c0 55.333 9.83203 104.833 29.499 148.5s45.834 80.5 78.501 110.5s70.167 53 112.5 69s86.5 24 132.5 24s90.167 -8 132.5 -24s79.666 -39 111.999 -69s58.333 -66.833 78 -110.5s29.5 -93.167 29.5 -148.5s-9.83301 -104.833 -29.5 -148.5
s-45.667 -80.5 -78 -110.5s-69.666 -53 -111.999 -69s-86.5 -24 -132.5 -24c-48 0 -93.5 8 -136.5 24s-80.5 39 -112.5 69s-57.333 66.833 -76 110.5s-28 93.167 -28 148.5zM102.999 290c0 -46 7.83398 -87.832 23.501 -125.499s37.167 -69.667 64.5 -96
s59.333 -46.833 96 -61.5s75.667 -22 117 -22s80.333 7.33301 117 22s68.5 35.167 95.5 61.5s48.333 58.333 64 96s23.5 79.5 23.5 125.5s-8.33301 87.833 -25 125.5s-38.834 69.667 -66.501 96s-59.667 46.833 -96 61.5s-73.833 22 -112.5 22
c-44 0 -84.5 -7.33301 -121.5 -22s-68.667 -35.334 -95 -62.001s-47 -58.667 -62 -96s-22.5 -79 -22.5 -125zM510 206.001l25.002 0.00292969c2.66699 -10 4.66699 -25.167 6 -45.5s1 -38.5 -1 -54.5c-6 -4.66699 -13.5 -8.5 -22.5 -11.5s-18.5 -5.5 -28.5 -7.5
s-20.333 -3.33301 -31 -4s-20.334 -1 -29.001 -1c-32.667 0 -62.5 4.5 -89.5 13.5s-50.333 22.333 -70 40s-35 39.5 -46 65.5s-16.5 56 -16.5 90c0 34.667 6.16699 65 18.5 91s28.333 47.667 48 65s42 30.5 67 39.5s50.167 13.5 75.5 13.5c26 0 49.333 -1.83301 70 -5.5
s37.667 -8.83398 51 -15.501c0.666992 -6 1 -13.833 1 -23.5s-0.333008 -19.834 -1 -30.501s-1.66699 -21 -3 -31s-3 -18.333 -5 -25h-25l-30 83c-4.66699 3.33301 -12 5.16602 -22 5.49902s-19.667 0.833008 -29 1.5c-38 -0.666992 -67.5 -15.834 -88.5 -45.501
s-31.5 -70.5 -31.5 -122.5c0 -22 2.33301 -43.167 7 -63.5s12.167 -38.333 22.5 -54s23.833 -28 40.5 -37s36.667 -13.5 60 -13.5c13.333 0 24.166 1.33301 32.499 4s13.833 5.33398 16.5 8.00098z" />
    <glyph glyph-name="guillemotleft" unicode="&#xab;" horiz-adv-x="461" 
d="M240 259l212 205l21 -19l-148 -187l76 -181l-29 -20zM46 259l257 207l21 -20l-181 -189l109 -181l-30 -21z" />
    <glyph glyph-name="uni00AD" unicode="&#xad;" horiz-adv-x="425" 
d="M85 313h282l-13 -63h-283z" />
    <glyph glyph-name="registered" unicode="&#xae;" horiz-adv-x="697" 
d="M127 451c0 42.667 7.16699 80.5 21.5 113.5s33.666 60.833 57.999 83.5s52.666 39.834 84.999 51.501s66.5 17.5 102.5 17.5c37.333 0 72.166 -5.83301 104.499 -17.5s60.5 -28.834 84.5 -51.501s43 -50.5 57 -83.5s21 -70.833 21 -113.5
c0 -43.333 -7.16699 -81.5 -21.5 -114.5s-33.666 -60.833 -57.999 -83.5s-52.666 -39.834 -84.999 -51.501s-66.5 -17.5 -102.5 -17.5c-37.333 0 -72.166 5.83301 -104.499 17.5s-60.5 28.834 -84.5 51.501s-43 50.5 -57 83.5s-21 71.167 -21 114.5zM174 451
c0 -34.667 5.83398 -65.8311 17.501 -93.498s27.5 -51.334 47.5 -71.001s43.333 -34.667 70 -45s55 -15.166 85 -14.499c31.333 -0.666992 60.5 4.16602 87.5 14.499s50.333 25.166 70 44.499s35 42.833 46 70.5s16.5 59.167 16.5 94.5
c0 34.667 -5.83301 65.834 -17.5 93.501s-27.5 51.167 -47.5 70.5s-43.333 34.333 -70 45s-55 15.667 -85 15c-32 0.666992 -61.333 -4.33301 -88 -15s-49.834 -25.667 -69.501 -45s-35 -42.833 -46 -70.5s-16.5 -58.834 -16.5 -93.501zM360.001 342.003
c8.66699 -0.666992 15.8271 -1.83301 21.4941 -3.5s10.834 -3.5 15.501 -5.5v-24h-124v24c11.333 4 23 7 35 9v233c-7.33301 0.666992 -13.666 1.83398 -18.999 3.50098s-10.666 4.16699 -15.999 7.5v22h38c12 0 26.333 0.666992 43 2s30.334 2 41.001 2
c14.667 0 28.834 -1.5 42.501 -4.5s25.834 -8 36.501 -15s19 -15.833 25 -26.5s9 -23.334 9 -38.001c0 -20.667 -7.16699 -37 -21.5 -49s-30.833 -21 -49.5 -27l34.5 -56.5c11 -18.333 26.167 -36.166 45.5 -53.499l23 -12v-21h-50l-28 11c-16.667 20 -30 40.667 -40 62
s-18.667 41.666 -26 60.999h-36v-101zM389.994 580.004c-7.33301 0 -13.167 -0.167969 -17.5 -0.500977s-8.5 -1.16602 -12.5 -2.49902v-105h32c40 0 59.333 18.667 58 56c-0.666992 17.333 -6.5 30.333 -17.5 39s-25.167 13 -42.5 13z" />
    <glyph glyph-name="macron" unicode="&#xaf;" horiz-adv-x="464" 
d="M206 637l10 52h254l-11 -52h-253z" />
    <glyph glyph-name="acute" unicode="&#xb4;" horiz-adv-x="512" 
d="M352 767c5.33301 0.666992 12.333 0.5 21 -0.5s17.667 -2.5 27 -4.5s18 -4.5 26 -7.5s14 -6.16699 18 -9.5v-19l-197 -151l-22 18z" />
    <glyph glyph-name="cedilla" unicode="&#xb8;" horiz-adv-x="445" 
d="M196 -68c28 -1.33301 47.999 -7.83301 59.999 -19.5s18.667 -27.167 20 -46.5c0.666992 -20.667 -5.16602 -38.5 -17.499 -53.5s-27.833 -27.333 -46.5 -37s-38.834 -16.667 -60.501 -21s-41.5 -6.16602 -59.5 -5.49902v30c12.667 2 25.334 4.83301 38.001 8.5
s24 8.16699 34 13.5s18 11.833 24 19.5s8.66699 16.167 8 25.5c0 6 -0.833008 11.667 -2.5 17s-4.66699 10.166 -9 14.499s-10.5 8 -18.5 11s-18.667 5.16699 -32 6.5l56 106h46z" />
    <glyph glyph-name="ordmasculine" unicode="&#xba;" horiz-adv-x="436" 
d="M39 500c0 30.667 6 58.999 18 84.999s28 48.333 48 67s43 33.334 69 44.001s53 16 81 16c46 0 81.333 -12 106 -36s37 -55 37 -93c0 -34.667 -6.5 -65.167 -19.5 -91.5s-29.667 -48.333 -50 -66s-43.333 -31 -69 -40s-51.167 -13.5 -76.5 -13.5
c-20 0 -38.833 3.16699 -56.5 9.5s-33 15.166 -46 26.499s-23.167 24.833 -30.5 40.5s-11 32.834 -11 51.501zM122 498.999c0 -12 1.16602 -23.3301 3.49902 -33.9971s6.33301 -20.167 12 -28.5s12.834 -15 21.501 -20s19 -7.5 31 -7.5c14.667 0 29.5 3.66699 44.5 11
s28.5 18.666 40.5 33.999s21.667 34.666 29 57.999s11 51 11 83c0 10 -1.16699 19.667 -3.5 29s-6.16602 17.833 -11.499 25.5s-12.333 13.667 -21 18s-19.667 6.5 -33 6.5c-14.667 0 -29.334 -4.5 -44.001 -13.5s-28 -21.167 -40 -36.5s-21.667 -33.833 -29 -55.5
s-11 -44.834 -11 -69.501z" />
    <glyph glyph-name="guillemotright" unicode="&#xbb;" horiz-adv-x="461" 
d="M261 262l-213 -205l-20 19l147 187l-75 181l28 20zM454 262l-256 -207l-21 20l181 189l-109 181l30 21z" />
    <glyph glyph-name="AE" unicode="&#xc6;" horiz-adv-x="913" 
d="M943 700c-10 -51.333 -25.3301 -105.333 -45.9971 -162h-26l-17 110h-219l-55 -265h162l55 74h25c-4.66699 -33.333 -10.334 -67.333 -17.001 -102s-15.334 -68 -26.001 -100h-24l-24 76h-162l-60 -280h230l75 121h25c-1.33301 -27.333 -4 -55.5 -8 -84.5
s-9.66699 -58.167 -17 -87.5h-493l5 29c27.333 11.333 56.666 19.333 87.999 24l43 203h-193l-157 -203c14 -2 27.333 -5 40 -9s25.667 -9 39 -15l-5 -29h-230l6 29c26 10.667 52 18.667 78 24l479 599c-19.333 4 -37.333 10.333 -54 19l7 29h476zM304.003 307h164l65 304
h-2l-59 -93z" />
    <glyph glyph-name="dotlessi" unicode="&#x131;" horiz-adv-x="277" 
d="M70 451l-0.000976562 25.0029c10 4 21.333 8.16699 34 12.5s25.667 8.16602 39 11.499s26 6.16602 38 8.49902s22.667 3.5 32 3.5l18 -12l-94 -444h74v-26c-14 -10.667 -30.333 -19.334 -49 -26.001s-37 -10 -55 -10c-19.333 0 -33.166 4.33301 -41.499 13
s-12.5 18.667 -12.5 30c0 13.333 1 26.333 3 39s4.66699 26.667 8 42l70 323z" />
    <glyph glyph-name="uni0237" unicode="&#x237;" horiz-adv-x="275" 
d="M133 442l-59.999 8.99805v25c20.667 9.33301 43.667 17.666 69 24.999s48.333 11 69 11l20 -12l-97 -457c-10 -47.333 -23.833 -86.666 -41.5 -117.999s-36.167 -56.666 -55.5 -75.999s-37.833 -33.666 -55.5 -42.999s-31.834 -15.333 -42.501 -18l-12 22
c8 4 17.333 10.833 28 20.5s21.334 23 32.001 40s21.167 38.167 31.5 63.5s19.166 55.333 26.499 90z" />
    <glyph glyph-name="circumflex" unicode="&#x2c6;" horiz-adv-x="441" 
d="M221 590l-28.999 16l151 186c3.33301 2.66699 7.66602 4 12.999 4s9.33301 -1.33301 12 -4l73 -185l-27 -17l-78 107z" />
    <glyph glyph-name="dotaccent" unicode="&#x2d9;" horiz-adv-x="299" 
d="M209 673c0 17.333 5.33301 31 16 41s24.667 15 42 15c18.667 0 33.334 -5 44.001 -15s16 -23.667 16 -41c0 -16.667 -5.33301 -29.667 -16 -39s-25.334 -14 -44.001 -14c-17.333 0 -31.333 4.66699 -42 14s-16 22.333 -16 39z" />
    <glyph glyph-name="ring" unicode="&#x2da;" horiz-adv-x="468" 
d="M236 666c0 15.333 2.66699 30 8 44s13 26.167 23 36.5s22 18.5 36 24.5s29.667 9 47 9c25.333 0 45 -7 59 -21s21 -32 21 -54c0 -16 -3 -30.833 -9 -44.5s-14 -25.5 -24 -35.5s-21.833 -17.833 -35.5 -23.5s-28.167 -8.5 -43.5 -8.5c-25.333 0 -45.333 6.33301 -60 19
s-22 30.667 -22 54zM288 670c0 -12 3.50098 -20.999 10.501 -26.999s14.833 -9 23.5 -9c12.667 0 25 6.16699 37 18.5s18 30.166 18 53.499c0 22 -9.66699 33 -29 33c-20.667 0 -35.834 -7.5 -45.501 -22.5s-14.5 -30.5 -14.5 -46.5z" />
    <glyph glyph-name="tilde" unicode="&#x2dc;" horiz-adv-x="432" 
d="M432 672c-21.333 -21.333 -40.833 -36.168 -58.5 -44.501s-34.167 -12.5 -49.5 -12.5c-12 0 -23.333 1.83301 -34 5.5s-21 7.5 -31 11.5l-29.5 11.5c-9.66699 3.66699 -19.5 5.5 -29.5 5.5c-8.66699 0 -17.5 -1.66699 -26.5 -5s-18.833 -9.66602 -29.5 -18.999l-19 28
c24.667 23.333 46.667 39 66 47s36.666 12 51.999 12c12 0 23.167 -1.66699 33.5 -5s20.166 -7 29.499 -11s18.833 -7.66699 28.5 -11s19.5 -5 29.5 -5c8.66699 0 17.334 1.5 26.001 4.5s18.334 8.16699 29.001 15.5z" />
    <glyph glyph-name="hungarumlaut" unicode="&#x2dd;" horiz-adv-x="623" 
d="M326 768c4 0.666992 10.333 0.5 19 -0.5s17.5 -2.5 26.5 -4.5s17.167 -4.5 24.5 -7.5s12 -5.83301 14 -8.5v-15l-138 -134l-23 16zM499 768c4.66699 0.666992 11.168 0.501953 19.501 -0.498047s16.666 -2.83301 24.999 -5.5s16.333 -5.83398 24 -9.50098
s13.167 -7.83398 16.5 -12.501v-13l-199 -129l-19 18z" />
    <glyph glyph-name="afii10023" unicode="&#x401;" horiz-adv-x="572" 
d="M601 700c-5.33301 -26.667 -11.665 -53.667 -18.998 -81s-16 -54.333 -26 -81h-26l-17 110h-219l-55 -265h162l55 74h25c-5.33301 -33.333 -11.5 -66.833 -18.5 -100.5s-15.167 -67.5 -24.5 -101.5h-25l-23 76h-163l-58 -279h229l75 120h25
c-1.33301 -26 -4 -53.833 -8 -83.5s-9.66699 -59.167 -17 -88.5h-493l5 29c27.333 11.333 56.666 19.333 87.999 24l125 593c-13.333 3.33301 -26.333 7 -39 11s-25.334 8.66699 -38.001 14l7 29h473zM230.001 789c0 16 5.5 28 16.5 36s24.5 12 40.5 12
c16.667 0 30.334 -4 41.001 -12s16 -20 16 -36c0 -15.333 -5.33301 -27 -16 -35s-24.334 -12 -41.001 -12c-16 0 -29.5 4 -40.5 12s-16.5 19.667 -16.5 35zM453.001 789c0 16 5.33301 28 16 36s24.334 12 41.001 12c16 0 29.333 -4 40 -12s16.334 -20 17.001 -36
c-0.666992 -15.333 -6.33398 -27 -17.001 -35s-24 -12 -40 -12c-16.667 0 -30.334 4 -41.001 12s-16 19.667 -16 35z" />
    <glyph glyph-name="afii10051" unicode="&#x402;" horiz-adv-x="747" 
d="M721 290c0 -51.333 -8.16504 -95.5029 -24.498 -132.503s-37.333 -67.333 -63 -91s-54 -41.167 -85 -52.5s-61.5 -17 -91.5 -17l-1 27c23.333 6.66699 45.166 16.334 65.499 29.001s38.166 29.334 53.499 50.001s27.5 45.5 36.5 74.5s13.5 63.5 13.5 103.5
c0 14.667 -1.5 28.167 -4.5 40.5s-8.33301 23 -16 32s-18.167 16 -31.5 21s-30.333 7.5 -51 7.5c-28 0 -55 -4.16699 -81 -12.5s-49.667 -18.166 -71 -29.499l-60 -287c11.333 -3.33301 22.333 -7 33 -11s21.334 -8.33301 32.001 -13l-6 -29h-259l5 29
c16 6 32 10.833 48 14.5s33 6.83398 51 9.50098l126 595h-153l-83 -143h-25c0.666992 13.333 2.16699 28.5 4.5 45.5s5 34.333 8 52l9 52c3 17 5.83301 32.167 8.5 45.5h580c-2.66699 -13.333 -5.83398 -28.333 -9.50098 -45s-7.83398 -33.5 -12.501 -50.5l-14.5 -50.5
c-5 -16.667 -10.167 -32 -15.5 -46h-25l-23 140h-153l-55 -259c20.667 10 46.834 20 78.501 30s66.5 15 104.5 15c56 0 96.167 -12.833 120.5 -38.5s36.5 -60.834 36.5 -105.501z" />
    <glyph glyph-name="afii10052" unicode="&#x403;" horiz-adv-x="497" 
d="M169 53c32.667 -5.33301 62.668 -13.332 90.001 -23.999l-5 -29h-274l5 29c30 11.333 59.333 19.333 88 24l125 593c-13.333 2.66699 -26.333 6.16699 -39 10.5s-25.334 9.16602 -38.001 14.499l7 29h468c-2.66699 -13.333 -6 -28.666 -10 -45.999
s-8.5 -35.333 -13.5 -54s-10.167 -36.834 -15.5 -54.501s-10.333 -33.5 -15 -47.5h-26l-20 150h-202zM472.001 893.001c6 0.666992 13.667 0.333008 23 -1s18.833 -3.5 28.5 -6.5s18.667 -6.66699 27 -11s14.5 -8.83301 18.5 -13.5v-20l-226 -91l-17 19z" />
    <glyph glyph-name="afii10053" unicode="&#x404;" horiz-adv-x="644" 
d="M557 182l24.9951 -0.0078125c0 -18.667 -1.83301 -42.167 -5.5 -70.5s-9.16699 -55.833 -16.5 -82.5c-13.333 -7.33301 -27.666 -13.666 -42.999 -18.999s-31.333 -9.66602 -48 -12.999s-33 -5.66602 -49 -6.99902s-31 -2 -45 -2c-56.667 0 -104.667 8 -144 24
s-71.166 37 -95.499 63s-42 55 -53 87s-16.5 64 -16.5 96c0 68 9.66699 129.833 29 185.5s46.833 103.334 82.5 143.001s79 70.5 130 92.5s108.5 33 172.5 33c44 0 81.333 -3 112 -9s56.334 -14.333 77.001 -25c-2 -10.667 -4.83301 -23.167 -8.5 -37.5s-8 -29.5 -13 -45.5
s-10.167 -31.667 -15.5 -47l-15 -42h-26l-21 144c-8.66699 3.33301 -21.834 5.83301 -39.501 7.5s-34.834 2.5 -51.501 2.5c-37.333 0 -72.166 -6 -104.499 -18s-61.333 -30 -87 -54s-47.667 -53.833 -66 -89.5s-31.5 -76.834 -39.5 -123.501l329 14
c1.33301 -11.333 0.833008 -23.833 -1.5 -37.5s-6.16602 -27.167 -11.499 -40.5c-22.667 2 -47.667 3.83301 -75 5.5l-83.5 5c-28.333 1.66699 -56.666 3 -84.999 4s-54.5 1.5 -78.5 1.5c-2 -21.333 -3 -43.666 -3 -66.999c0 -41.333 7.16699 -76.166 21.5 -104.499
s32.333 -51.166 54 -68.499s45.167 -29.666 70.5 -36.999s49.333 -10.666 72 -9.99902c22.667 -0.666992 41.834 1 57.501 5s27.167 8.33301 34.5 13z" />
    <glyph glyph-name="afii10054" unicode="&#x405;" horiz-adv-x="527" 
d="M121 69c7.33301 -6 19.6699 -12.5 37.0029 -19.5s35.666 -10.167 54.999 -9.5c22 -0.666992 43.333 1 64 5s39.334 11 56.001 21s30 23.167 40 39.5s15 36.833 15 61.5c0 27.333 -6.5 50.333 -19.5 69s-29.167 35.167 -48.5 49.5s-40.166 28 -62.499 41
s-43.166 27.5 -62.499 43.5s-35.5 34.833 -48.5 56.5s-19.5 48.5 -19.5 80.5c0 30.667 5.5 58.5 16.5 83.5s27.333 46.5 49 64.5s48.167 32 79.5 42s67 15 107 15c40.667 0 77 -3.16699 109 -9.5s57 -14.166 75 -23.499c-2.66699 -11.333 -6.5 -24.5 -11.5 -39.5
l-15.5 -46.5c-5.33301 -16 -11 -31.5 -17 -46.5l-16 -39.5h-26l-12 137c-11.333 5.33301 -25.833 9.33301 -43.5 12s-36.834 4 -57.501 4c-20 0 -38.833 -2.33301 -56.5 -7s-33 -11.834 -46 -21.501s-23.167 -21.834 -30.5 -36.501s-11 -32 -11 -52
c0 -26.667 6.5 -48.834 19.5 -66.501s29.167 -33.5 48.5 -47.5s40.166 -27.5 62.499 -40.5s43.166 -27.833 62.499 -44.5s35.5 -36.834 48.5 -60.501s19.5 -52.834 19.5 -87.501c0 -31.333 -6.16699 -59.666 -18.5 -84.999s-30 -47.166 -53 -65.499s-51.333 -32.5 -85 -42.5
s-71.834 -15 -114.501 -15c-21.333 0 -41.833 1.33301 -61.5 4s-37.667 6.33398 -54 11.001s-30.833 9.83398 -43.5 15.501s-22.334 11.167 -29.001 16.5c2.66699 12 6.5 26.167 11.5 42.5s10.5 32.833 16.5 49.5l18 48.5c6 15.667 11.667 29.167 17 40.5h26z" />
    <glyph glyph-name="afii10055" unicode="&#x406;" horiz-adv-x="343" 
d="M255 0h-256.002l5 29c29.333 12 58 20 86 24l125 593c-13.333 2.66699 -26 6.16699 -38 10.5s-24.333 9.16602 -37 14.499l7 29h256l-6 -29c-13.333 -5.33301 -27.666 -10.166 -42.999 -14.499s-29.666 -7.83301 -42.999 -10.5l-125 -593
c13.333 -2.66699 26.5 -6 39.5 -10s24.5 -8.66699 34.5 -14z" />
    <glyph glyph-name="afii10056" unicode="&#x407;" horiz-adv-x="343" 
d="M255 0h-256.002l5 29c29.333 12 58 20 86 24l125 593c-13.333 2.66699 -26 6.16699 -38 10.5s-24.333 9.16602 -37 14.499l7 29h256l-6 -29c-13.333 -5.33301 -27.666 -10.166 -42.999 -14.499s-29.666 -7.83301 -42.999 -10.5l-125 -593
c13.333 -2.66699 26.5 -6 39.5 -10s24.5 -8.66699 34.5 -14zM148.998 789c0 16 5.33301 28 16 36s24 12 40 12c16.667 0 30.167 -4 40.5 -12s15.5 -20 15.5 -36c0 -15.333 -5.16699 -27 -15.5 -35s-23.833 -12 -40.5 -12c-16 0 -29.333 4 -40 12s-16 19.667 -16 35z
M325.998 789c0 16 5.33301 28 16 36s24 12 40 12c16.667 0 30.167 -4 40.5 -12s15.5 -20 15.5 -36c0 -15.333 -5.16699 -27 -15.5 -35s-23.833 -12 -40.5 -12c-16 0 -29.333 4 -40 12s-16 19.667 -16 35z" />
    <glyph glyph-name="afii10057" unicode="&#x408;" horiz-adv-x="331" 
d="M136 700l255 0.000976562l-5 -29c-13.333 -6 -27.666 -11 -42.999 -15s-29.666 -7.33301 -42.999 -10l-118 -560c-10 -46 -23.5 -84 -40.5 -114s-35.333 -54.167 -55 -72.5s-39.334 -32 -59.001 -41s-37.167 -15.167 -52.5 -18.5l-7 15
c13.333 10.667 25.5 21.5 36.5 32.5s21.167 24.667 30.5 41s18 36.166 26 59.499s15.667 52.333 23 87l120 571c-28.667 6.66699 -53.334 15 -74.001 25z" />
    <glyph glyph-name="afii10058" unicode="&#x409;" horiz-adv-x="911" 
d="M322 0l5.99609 29c28 12 55.333 20 82 24l125 595h-186c-16.667 -69.333 -32.667 -130.833 -48 -184.5s-30 -100.834 -44 -141.501s-27.667 -75.667 -41 -105s-26.5 -55 -39.5 -77s-26 -41.167 -39 -57.5s-26.167 -31.166 -39.5 -44.499
c-17.333 -17.333 -36.666 -30 -57.999 -38s-40.666 -12 -57.999 -12c-6 8.66699 -11 21.834 -15 39.501s-6.33301 35.167 -7 52.5c0 4 0.166992 8 0.5 12s0.833008 8 1.5 12l20 25l111 -21c13.333 16.667 27.833 38.667 43.5 66s31.834 62.166 48.501 104.499
s33.667 93.166 51 152.499s34.666 129.333 51.999 210c-39.333 7.33301 -71 17.333 -95 30l6 29h531l-6 -29c-13.333 -5.33301 -27.833 -10.166 -43.5 -14.499s-32.167 -7.83301 -49.5 -10.5l-48 -229c12.667 2 27.667 3.66699 45 5s32.666 2 45.999 2
c32 0 60.833 -3.5 86.5 -10.5s47.834 -17.333 66.501 -31s33 -30.334 43 -50.001s15 -42.167 15 -67.5c0 -52.667 -10.333 -96.167 -31 -130.5s-46.667 -61.666 -78 -81.999s-65.5 -34.666 -102.5 -42.999s-71.833 -12.5 -104.5 -12.5
c-3.33301 0 -9.66602 0.166992 -18.999 0.5s-20.166 0.666016 -32.499 0.999023l-38 1c-13 0.333008 -24.5 0.5 -34.5 0.5h-123zM640.996 372c-15.333 0 -28.335 -0.500977 -39.002 -1.50098s-20.667 -2.5 -30 -4.5l-66 -312c2.66699 -1.33301 7 -2.16602 13 -2.49902
s12.5 -0.833008 19.5 -1.5s13.833 -1 20.5 -1h16c26 0 51.167 3.83301 75.5 11.5s46 20.334 65 38.001s34.333 40.167 46 67.5s17.167 60 16.5 98c0.666992 15.333 -1.16602 29.666 -5.49902 42.999s-11.666 24.833 -21.999 34.5s-24.5 17.167 -42.5 22.5s-40.333 8 -67 8z
" />
    <glyph glyph-name="afii10059" unicode="&#x40a;" horiz-adv-x="984" 
d="M397 0l5.99707 28.9971c14 6 27.333 11 40 15s26.334 7 41.001 9l62 293h-315l-61 -293c25.333 -5.33301 48.333 -13.333 69 -24l-5 -29h-254l6 29c14.667 6.66699 29.334 11.667 44.001 15s29.334 6.33301 44.001 9l125 593c-30 4.66699 -55.667 13 -77 25l6 29h254
l-6 -29c-13.333 -6 -26.833 -11 -40.5 -15s-27.167 -7.33301 -40.5 -10l-53 -248h315l53 248c-13.333 3.33301 -25.333 7 -36 11s-22.334 8.66699 -35.001 14l6 29h260l-6 -29c-13.333 -5.33301 -28 -10.166 -44 -14.499s-32.333 -7.83301 -49 -10.5l-53 -249
c12.667 2 27.667 3.66699 45 5s32.666 2 45.999 2c32 0 61.167 -3.33301 87.5 -10s48.833 -16.667 67.5 -30s33.167 -29.666 43.5 -48.999s15.5 -41.666 15.5 -66.999c0 -49.333 -10.333 -90.166 -31 -122.499s-46.667 -58 -78 -77s-65.5 -32.333 -102.5 -40
s-72.167 -11.5 -105.5 -11.5c-3.33301 0 -9.66602 0.166992 -18.999 0.5s-20.166 0.666016 -32.499 0.999023l-38 1c-13 0.333008 -24.5 0.5 -34.5 0.5h-120zM713.997 351.997c-16 0 -29.668 -0.500977 -41.001 -1.50098s-21.666 -2.5 -30.999 -4.5l-62 -292
c2.66699 -1.33301 7.16699 -2.16602 13.5 -2.49902s13 -0.833008 20 -1.5s13.833 -1 20.5 -1h15c26.667 0 52.167 3.16699 76.5 9.5s45.833 17.333 64.5 33s33.5 36 44.5 61s16.5 55.5 16.5 91.5c0 14 -2.16699 27.5 -6.5 40.5s-11.666 24.5 -21.999 34.5s-24.333 18 -42 24
s-39.834 9 -66.501 9z" />
    <glyph glyph-name="afii10060" unicode="&#x40b;" horiz-adv-x="765" 
d="M436 648l-55 -259.001c20 10 44.5 20 73.5 30s62.5 15 100.5 15c44 0 78.833 -11 104.5 -33s38.834 -57 39.501 -105c0 -21.333 -3 -46 -9 -74l-36 -169c22.667 -4 44.667 -12 66 -24l-5 -29h-167l47 229c4 19.333 6.33301 38.166 7 56.499s-1.83301 34.666 -7.5 48.999
s-14.667 25.833 -27 34.5s-29.5 13 -51.5 13c-28 0 -54 -4.16699 -78 -12.5s-46.667 -18.166 -68 -29.499l-60 -287c11.333 -3.33301 22.5 -7 33.5 -11s21.5 -8.33301 31.5 -13l-5 -29h-260l5 29c16 5.33301 32 10 48 14s33 7.33301 51 10l125 595h-152l-82 -143h-26
c0.666992 13.333 2 28.5 4 45.5s4.33301 34.333 7 52s5.66699 35 9 52s6.66602 32.167 9.99902 45.5h580c-2.66699 -13.333 -6 -28.166 -10 -44.499s-8.33301 -33.166 -13 -50.499s-9.5 -34.333 -14.5 -51s-9.83301 -31.667 -14.5 -45h-25l-23 139h-153z" />
    <glyph glyph-name="afii10061" unicode="&#x40c;" horiz-adv-x="637" 
d="M476 700h227.001l-7 -29c-12 -6 -25.333 -11 -40 -15s-28.334 -7.33301 -41.001 -10l-259 -270l41.5 -73l50 -83l55 -87l56.5 -84l43 -24l-5 -25h-121l-29 24c-30 46 -59 95.667 -87 149s-54.333 107.333 -79 162h-53l-59 -282c27.333 -5.33301 50.333 -13.333 69 -24
l-5 -29h-253l5 29c30 12 59.333 20 88 24l125 593c-14.667 2.66699 -28.5 6 -41.5 10s-24.833 9 -35.5 15l7 29h253l-6 -29c-22.667 -10.667 -49.667 -19 -81 -25l-58 -277l60 14l240 263c-13.333 3.33301 -25.333 6.83301 -36 10.5s-21 8.5 -31 14.5zM521.001 893
c6 0.666992 13.667 0.333008 23 -1s18.833 -3.5 28.5 -6.5s18.667 -6.66699 27 -11s14.5 -8.83301 18.5 -13.5v-20l-226 -91l-17 19z" />
    <glyph glyph-name="afii10062" unicode="&#x40e;" horiz-adv-x="650" 
d="M609 646c-30.667 6 -57.333 14.332 -80 24.999l6 29h223l-6 -29c-9.33301 -4.66699 -20.333 -9.16699 -33 -13.5s-27.334 -8.16602 -44.001 -11.499l-296 -474c-41.333 -63.333 -79.5 -110.5 -114.5 -141.5s-71.5 -42.833 -109.5 -35.5
c-3.33301 6 -6.16602 13.667 -8.49902 23s-4.5 19 -6.5 29s-3.33301 20 -4 30s-0.333984 19 0.999023 27l29 24l105 -27c3.33301 2.66699 7.33301 6.66699 12 12s9.33398 11.333 14.001 18l13.5 20c4.33301 6.66699 7.83301 12.667 10.5 18l-158 477l-35 10.5
c-12 3.66699 -23.667 8.5 -35 14.5l6 29h263l-6 -29c-11.333 -5.33301 -24.5 -10 -39.5 -14s-30.833 -7.66699 -47.5 -11l106 -331l8 -64h2l34 66zM443.001 730.999c-27.333 0 -50.334 3.83398 -69.001 11.501s-33.5 17.334 -44.5 29.001s-18.667 24 -23 37
s-5.83301 24.5 -4.5 34.5c10.667 8.66699 25.667 15.167 45 19.5s36 7.16602 50 8.49902l25 -13v-66c4 -3.33301 9.16699 -6.33301 15.5 -9s14.833 -4 25.5 -4c14.667 0 29.667 2 45 6s29.5 9.5 42.5 16.5s24.5 15.5 34.5 25.5s17 21.333 21 34
c6.66699 0 13.334 -1.33301 20.001 -4s11.667 -6.33398 15 -11.001c-4 -14 -11.667 -27.833 -23 -41.5s-25.5 -26 -42.5 -37s-36.667 -19.833 -59 -26.5s-46.833 -10 -73.5 -10z" />
    <glyph glyph-name="afii10145" unicode="&#x40f;" horiz-adv-x="709" 
d="M535 700l253.001 -0.00195312l-5 -29c-11.333 -5.33301 -24 -10.166 -38 -14.499s-30.667 -7.83301 -50 -10.5l-126 -593c26.667 -5.33301 52.334 -13.333 77.001 -24l-6 -29h-284c-9.33301 -30 -20 -60.833 -32 -92.5s-26 -64.5 -42 -98.5h-26
c0 32.667 0.5 64.834 1.5 96.501s2.83301 63.167 5.5 94.5h-283l6 29c13.333 6.66699 27.5 11.667 42.5 15s29.833 6.33301 44.5 9l125 593c-12.667 1.33301 -25.334 4.16602 -38.001 8.49902s-25.334 9.83301 -38.001 16.5l6 29h253l-5 -29
c-8 -4.66699 -18.667 -9.16699 -32 -13.5s-30 -8.16602 -50 -11.499l-125 -594h304l126 594c-12 3.33301 -24 7 -36 11s-23 8.66699 -33 14z" />
    <glyph glyph-name="afii10017" unicode="&#x410;" horiz-adv-x="674" 
d="M176 0l-225.001 0.000976562l6 29c26 10.667 52 18.667 78 24l395 659h26l113 -659c12 -2.66699 24.167 -5.83398 36.5 -9.50098s23.5 -8.5 33.5 -14.5l-5 -29h-254l5 29c30 11.333 59.333 19.333 88 24l-30 183h-235l-107 -183c28.667 -4 55.334 -12 80.001 -24z
M236.999 288.001h198l-32 212l-2 86h-2l-40 -88z" />
    <glyph glyph-name="afii10018" unicode="&#x411;" horiz-adv-x="590" 
d="M198 646c-14.667 2.66699 -28.3311 6.16992 -40.998 10.5029s-24.667 9.16602 -36 14.499l7 29h479c-4.66699 -26.667 -11.334 -56.5 -20.001 -89.5s-18.667 -63.5 -30 -91.5h-26l-23 129h-214l-50 -241c16 2.66699 31.833 4.5 47.5 5.5s30.167 1.5 43.5 1.5
c66 0 117.833 -12.167 155.5 -36.5s56.5 -62.5 56.5 -114.5c0 -38 -7.16699 -73.167 -21.5 -105.5s-35 -60.333 -62 -84s-60 -42.334 -99 -56.001s-82.833 -20.5 -131.5 -20.5c-3.33301 0 -9.83301 0.166992 -19.5 0.5s-20.834 0.666016 -33.501 0.999023l-39 1
c-13.333 0.333008 -25 0.5 -35 0.5h-126l5 29c28.667 12 58 20 88 24zM311.003 362.003c-15.333 0 -29.168 -0.500977 -41.501 -1.50098s-24.5 -2.16699 -36.5 -3.5l-64 -303c2.66699 -1.33301 7.16699 -2.16602 13.5 -2.49902s13 -0.833008 20 -1.5s13.833 -1 20.5 -1h16
c31.333 0 59.5 5 84.5 15s46.167 24.167 63.5 42.5s30.5 40 39.5 65s13.5 52.167 13.5 81.5c0 15.333 -1.66699 29.666 -5 42.999s-9.66602 24.833 -18.999 34.5s-22.5 17.334 -39.5 23.001s-38.833 8.5 -65.5 8.5z" />
    <glyph glyph-name="afii10019" unicode="&#x412;" horiz-adv-x="605" 
d="M-20 0l4.99707 28.999c30 12.667 59.333 20.667 88 24l125 593c-13.333 2.66699 -26.333 6.16699 -39 10.5s-25.334 9.16602 -38.001 14.499l7 29h106c24.667 0 49.334 1 74.001 3s55.667 3 93 3c26.667 0 52 -2.33301 76 -7s45 -12 63 -22s32.333 -23.167 43 -39.5
s16 -36.5 16 -60.5c0 -23.333 -3.5 -45.5 -10.5 -66.5s-17.833 -40.333 -32.5 -58s-33.167 -33.167 -55.5 -46.5s-48.5 -24 -78.5 -32v-4c15.333 -1.33301 31 -4.66602 47 -9.99902s30.5 -13.166 43.5 -23.499s23.5 -23.333 31.5 -39s12 -34.167 12 -55.5
c0 -35.333 -6.66699 -68 -20 -98s-33.166 -56.167 -59.499 -78.5s-59.5 -39.833 -99.5 -52.5s-86.667 -19 -140 -19c-23.333 0 -49.166 1 -77.499 3s-56.166 3 -83.499 3h-96zM255.997 45.999c27.333 -0.666992 53.3311 3.00195 77.998 11.002s46.334 19.667 65.001 35
s33.5 34.166 44.5 56.499s16.5 47.833 16.5 76.5c0 22 -3.83301 40 -11.5 54s-18.667 24.667 -33 32s-31.5 12.333 -51.5 15s-42.333 4 -67 4h-76l-58 -276c8.66699 -2.66699 19.334 -4.83398 32.001 -6.50098s33 -2.16699 61 -1.5zM281.995 382.001
c11.333 0 24.833 0.499023 40.5 1.49902s29.167 2.16699 40.5 3.5c52.667 18.667 89.167 43.834 109.5 75.501s30.5 66.167 30.5 103.5c0 26 -9.33301 47.167 -28 63.5s-50 24.5 -94 24.5c-21.333 0 -39.5 -0.5 -54.5 -1.5s-27.5 -2.16699 -37.5 -3.5l-57 -267h50z" />
    <glyph glyph-name="afii10020" unicode="&#x413;" horiz-adv-x="497" 
d="M169 53c32.667 -5.33301 62.668 -13.332 90.001 -23.999l-5 -29h-274l5 29c30 11.333 59.333 19.333 88 24l125 593c-13.333 2.66699 -26.333 6.16699 -39 10.5s-25.334 9.16602 -38.001 14.499l7 29h468c-2.66699 -13.333 -6 -28.666 -10 -45.999
s-8.5 -35.333 -13.5 -54s-10.167 -36.834 -15.5 -54.501s-10.333 -33.5 -15 -47.5h-26l-20 150h-202z" />
    <glyph glyph-name="afii10021" unicode="&#x414;" horiz-adv-x="678" 
d="M634 52c-3.33301 -14 -7.33203 -29.6699 -11.999 -47.0029l-15 -54c-5.33301 -18.667 -11.166 -37 -17.499 -55s-12.5 -33.667 -18.5 -47h-26l-6 151h-492l-79 -151h-24c0.666992 12.667 1.66699 28 3 46s2.83301 36.333 4.5 55s3.66699 36.834 6 54.501
s4.83301 33.5 7.5 47.5h83c23.333 27.333 47.166 62.833 71.499 106.5s47.666 91.834 69.999 144.501s43 108 62 166s34.5 115.333 46.5 172c-16.667 3.33301 -33.5 7.5 -50.5 12.5s-32.167 10.833 -45.5 17.5l7 29h530l-7 -29
c-21.333 -9.33301 -50.333 -17.666 -87 -24.999l-125 -594h114zM424.001 51.9971l125 596h-190c-21.333 -82 -43 -155.167 -65 -219.5s-43.5 -121 -64.5 -170s-41.333 -90.5 -61 -124.5s-38.167 -61.333 -55.5 -82h311z" />
    <glyph glyph-name="afii10022" unicode="&#x415;" horiz-adv-x="572" 
d="M601 700c-5.33301 -26.667 -11.665 -53.667 -18.998 -81s-16 -54.333 -26 -81h-26l-17 110h-219l-55 -265h162l55 74h25c-5.33301 -33.333 -11.5 -66.833 -18.5 -100.5s-15.167 -67.5 -24.5 -101.5h-25l-23 76h-163l-58 -279h229l75 120h25
c-1.33301 -26 -4 -53.833 -8 -83.5s-9.66699 -59.167 -17 -88.5h-493l5 29c27.333 11.333 56.666 19.333 87.999 24l125 593c-13.333 3.33301 -26.333 7 -39 11s-25.334 8.66699 -38.001 14l7 29h473z" />
    <glyph glyph-name="afii10024" unicode="&#x416;" horiz-adv-x="938" 
d="M512 646c-13.333 4 -25.3262 8.00195 -35.9932 12.002s-20.667 8.33301 -30 13l6 29h231l-6 -29c-8.66699 -4 -18.834 -8.16699 -30.501 -12.5s-24.834 -8.5 -39.501 -12.5l-59 -277l67 14l223 263c-12 3.33301 -23.333 7 -34 11s-21.667 8.66699 -33 14l6 29h227l-6 -29
c-13.333 -5.33301 -26.833 -10 -40.5 -14s-27.167 -7.66699 -40.5 -11l-243 -271l36 -71l43 -83.5c15.333 -29 31.666 -58.167 48.999 -87.5s35.666 -57.333 54.999 -84l42 -24l-5 -25h-119l-28 25c-15.333 22.667 -29.333 46.667 -42 72s-24.834 51.166 -36.501 77.499
s-22.834 53 -33.501 80s-22 53.833 -34 80.5h-60l-60 -282c10.667 -3.33301 21 -6.83301 31 -10.5s19.667 -8.16699 29 -13.5l-5 -29h-232l5 29c23.333 11.333 49.333 19.333 78 24l61 290l-69 -14l-51.5 -72.5l-58.5 -78.5l-64.5 -79.5
c-22.333 -26.333 -45.833 -50.833 -70.5 -73.5l-39 -25h-131l5 25l52 24c30 26.667 59 54.5 87 83.5l80.5 87l73 83.5l63.5 73l-128 270c-26.667 7.33301 -48.334 15.666 -65.001 24.999l6 29h213l-6 -29c-20.667 -10 -45 -18.333 -73 -25l114 -269h69z" />
    <glyph glyph-name="afii10025" unicode="&#x417;" horiz-adv-x="560" 
d="M197 -12c-38 0 -73.6709 3.83496 -107.004 11.502s-60 17.167 -80 28.5c2 10.667 5.16699 23 9.5 37s9.33301 28.5 15 43.5l17.5 45c6 15 12 28.5 18 40.5h25l13 -138c4 -2 9.83301 -4 17.5 -6s16.334 -3.83301 26.001 -5.5s19.5 -2.83398 29.5 -3.50098s19.333 -1 28 -1
c28.667 0 55.167 3.83301 79.5 11.5s45.5 19.667 63.5 36s32 37 42 62s15.333 54.5 16 88.5c-0.666992 34 -12.834 58.667 -36.501 74s-55.167 23 -94.5 23l-79 -11c0 9.33301 0.666992 19 2 29s4.33301 19.667 9 29h32c11.333 0 25.333 0.5 42 1.5s30.667 2.16699 42 3.5
c18.667 6.66699 36 15.667 52 27s29.667 24.5 41 39.5s20.333 31.167 27 48.5s10.334 35.666 11.001 54.999c-0.666992 38 -10 64.667 -28 80s-49 23 -93 23c-20 0 -36.833 -2 -50.5 -6s-24.5 -8.33301 -32.5 -13l-78 -122h-26l2 37c0.666992 12 1.66699 24 3 36
s3.33301 24.333 6 37s6 26.667 10 42c26.667 15.333 56.667 26 90 32s64.333 9 93 9c26.667 0 52.167 -2.66699 76.5 -8s45.666 -13.833 63.999 -25.5s32.833 -26.334 43.5 -44.001s16 -38.834 16 -63.501c0 -17.333 -2.33301 -35.166 -7 -53.499
s-13.167 -36.166 -25.5 -53.499s-29.166 -33.833 -50.499 -49.5s-48.666 -29.167 -81.999 -40.5v-4c13.333 -2 27 -6 41 -12s26.667 -14.5 38 -25.5s20.5 -24.167 27.5 -39.5s10.5 -33 10.5 -53c0 -38.667 -7.16699 -73.5 -21.5 -104.5s-34.666 -57.5 -60.999 -79.5
s-58.666 -38.833 -96.999 -50.5s-81.5 -17.5 -129.5 -17.5z" />
    <glyph glyph-name="afii10026" unicode="&#x418;" horiz-adv-x="729" 
d="M233 0h-252.999l5 29c29.333 12 58.666 20 87.999 24l125 593l-39 10.5c-13.333 3.66699 -26 8.5 -38 14.5l7 29h253l-6 -29c-11.333 -5.33301 -23.833 -10 -37.5 -14s-28.167 -7.66699 -43.5 -11l-92 -434l-26 -75l61 81l382 404l5 24
c-14.667 3.33301 -28.334 7 -41.001 11s-24 8.66699 -34 14l6 29h253l-6 -29c-13.333 -5.33301 -27.333 -10 -42 -14s-29.667 -7.66699 -45 -11l-126 -593c14 -2.66699 27.5 -6 40.5 -10s24.833 -8.66699 35.5 -14l-5 -29h-253l5 29c11.333 4.66699 24 9.16699 38 13.5
s28.667 7.83301 44 10.5l92 433l26 75l-56 -76l-389 -410l-4 -22c14.667 -2.66699 28.334 -6 41.001 -10s24 -8.66699 34 -14z" />
    <glyph glyph-name="afii10027" unicode="&#x419;" horiz-adv-x="729" 
d="M233 0h-252.999l5 29c29.333 12 58.666 20 87.999 24l125 593l-39 10.5c-13.333 3.66699 -26 8.5 -38 14.5l7 29h253l-6 -29c-11.333 -5.33301 -23.833 -10 -37.5 -14s-28.167 -7.66699 -43.5 -11l-92 -434l-26 -75l61 81l382 404l5 24
c-14.667 3.33301 -28.334 7 -41.001 11s-24 8.66699 -34 14l6 29h253l-6 -29c-13.333 -5.33301 -27.333 -10 -42 -14s-29.667 -7.66699 -45 -11l-126 -593c14 -2.66699 27.5 -6 40.5 -10s24.833 -8.66699 35.5 -14l-5 -29h-253l5 29c11.333 4.66699 24 9.16699 38 13.5
s28.667 7.83301 44 10.5l92 433l26 75l-56 -76l-389 -410l-4 -22c14.667 -2.66699 28.334 -6 41.001 -10s24 -8.66699 34 -14zM471.001 731c-27.333 0 -50.334 3.83398 -69.001 11.501s-33.5 17.334 -44.5 29.001s-18.667 24 -23 37s-5.83301 24.5 -4.5 34.5
c10.667 8.66699 25.667 15.167 45 19.5s36 7.16602 50 8.49902l25 -13v-66c4 -3.33301 9.16699 -6.33301 15.5 -9s14.833 -4 25.5 -4c14.667 0 29.667 2 45 6s29.5 9.5 42.5 16.5s24.5 15.5 34.5 25.5s17 21.333 21 34c6.66699 0 13.334 -1.33301 20.001 -4
s11.667 -6.33398 15 -11.001c-4 -14 -11.667 -27.833 -23 -41.5s-25.5 -26 -42.5 -37s-36.667 -19.833 -59 -26.5s-46.833 -10 -73.5 -10z" />
    <glyph glyph-name="afii10028" unicode="&#x41a;" horiz-adv-x="637" 
d="M476 700h227.001l-7 -29c-12 -6 -25.333 -11 -40 -15s-28.334 -7.33301 -41.001 -10l-259 -270l41.5 -73l50 -83l55 -87l56.5 -84l43 -24l-5 -25h-121l-29 24c-30 46 -59 95.667 -87 149s-54.333 107.333 -79 162h-53l-59 -282c27.333 -5.33301 50.333 -13.333 69 -24
l-5 -29h-253l5 29c30 12 59.333 20 88 24l125 593c-14.667 2.66699 -28.5 6 -41.5 10s-24.833 9 -35.5 15l7 29h253l-6 -29c-22.667 -10.667 -49.667 -19 -81 -25l-58 -277l60 14l240 263c-13.333 3.33301 -25.333 6.83301 -36 10.5s-21 8.5 -31 14.5z" />
    <glyph glyph-name="afii10029" unicode="&#x41b;" horiz-adv-x="646" 
d="M288 641c-39.333 7.33301 -71.001 17.335 -95.001 30.002l6 29h525l-6 -29c-12 -5.33301 -25.333 -10.166 -40 -14.499s-30.334 -7.83301 -47.001 -10.5l-125 -593c14 -2.66699 27.5 -6 40.5 -10s24.833 -8.66699 35.5 -14l-6 -29h-254l6 29
c13.333 5.33301 26.833 9.83301 40.5 13.5s27.5 7.16699 41.5 10.5l125 595h-186c-16.667 -70 -32.667 -131.667 -48 -185s-30 -100.333 -44 -141s-27.667 -75.834 -41 -105.501s-26.5 -55.5 -39.5 -77.5s-26 -41 -39 -57s-26.167 -30.667 -39.5 -44
c-17.333 -17.333 -36.666 -30 -57.999 -38s-40.666 -12 -57.999 -12c-4 5.33301 -7.5 12.833 -10.5 22.5s-5.5 20 -7.5 31s-3.16699 22 -3.5 33s0.166992 20.833 1.5 29.5l20 25l111 -21c13.333 16.667 27.833 38.667 43.5 66s31.834 62.166 48.501 104.499
s33.667 93.166 51 152.499s34.666 129.333 51.999 210z" />
    <glyph glyph-name="afii10030" unicode="&#x41c;" horiz-adv-x="857" 
d="M787 0l-248.002 0.00195312l5 29c14.667 5.33301 29 9.83301 43 13.5s28.667 7.16699 44 10.5l94 450l30 117h-8l-54 -107l-316 -513h-26l-87 513l-11 117h-9l-26 -127l-95 -450c12 -2.66699 24 -6 36 -10s23.667 -8.66699 35 -14l-6 -29h-208l5 29
c26.667 11.333 55.667 19.666 87 24.999l125 592c-13.333 2.66699 -26.666 6.16699 -39.999 10.5s-25.666 9.16602 -36.999 14.499l6 29h208l71 -457l12 -103h1l52 105l282 455h184l-7 -29c-26 -11.333 -53 -19.666 -81 -24.999l-126 -594
c13.333 -2.66699 26 -5.83398 38 -9.50098s22.667 -8.16699 32 -13.5z" />
    <glyph glyph-name="afii10031" unicode="&#x41d;" horiz-adv-x="719" 
d="M233 0l-253.002 0.000976562l5 29c14.667 6.66699 29.334 11.834 44.001 15.501s29.334 6.5 44.001 8.5l125 593c-30 6 -55.667 14.333 -77 25l7 29h253l-6 -29c-11.333 -6 -24.333 -11 -39 -15s-28.667 -7.33301 -42 -10l-55 -261h314l56 261
c-13.333 3.33301 -25.833 6.83301 -37.5 10.5s-22.834 8.5 -33.501 14.5l7 29h253l-6 -29c-13.333 -6.66699 -27.5 -11.834 -42.5 -15.501s-29.833 -6.83398 -44.5 -9.50098l-126 -593c30 -5.33301 55.333 -13.333 76 -24l-5 -29h-253l5 29
c12.667 5.33301 25.834 10 39.501 14s27.5 7.33301 41.5 10l59 280h-315l-58 -280c12 -2.66699 24 -6 36 -10s23 -8.66699 33 -14z" />
    <glyph glyph-name="afii10032" unicode="&#x41e;" horiz-adv-x="730" 
d="M66 278c0 60.667 9.16699 117.333 27.5 170s44.833 98.5 79.5 137.5s76.334 69.833 125.001 92.5s103.667 34 165 34c48.667 0 89.667 -8 123 -24s60.166 -37 80.499 -63s35 -55.833 44 -89.5s13.5 -68.5 13.5 -104.5c0 -53.333 -7.5 -106.5 -22.5 -159.5
s-38.167 -100.5 -69.5 -142.5s-70.833 -76 -118.5 -102s-104.167 -39 -169.5 -39c-48 0 -89.5 7.83301 -124.5 23.5s-63.833 36.667 -86.5 63s-39.5 57 -50.5 92s-16.5 72.167 -16.5 111.5zM173 276.999c0 -36.667 4.83105 -69.665 14.498 -98.998s23 -54.333 40 -75
s37 -36.5 60 -47.5s48.167 -16.167 75.5 -15.5c48.667 -0.666992 89.167 11.166 121.5 35.499s58.333 55.666 78 93.999s33.667 80.666 42 126.999s12.5 91.5 12.5 135.5c0 34 -3.83301 65 -11.5 93s-19.167 52 -34.5 72s-34.166 35.5 -56.499 46.5
s-48.166 16.5 -77.499 16.5c-46 0 -85.667 -12 -119 -36s-60.833 -54.667 -82.5 -92s-37.5 -78.666 -47.5 -123.999s-15 -89 -15 -131z" />
    <glyph glyph-name="afii10033" unicode="&#x41f;" horiz-adv-x="709" 
d="M233 0l-252.998 0.00292969l5 29c11.333 5.33301 24 10 38 14s30.667 7.33301 50 10l125 593c-13.333 2.66699 -26.333 6.16699 -39 10.5s-25.334 9.16602 -38.001 14.499l7 29h660l-6 -29c-13.333 -6.66699 -27.5 -11.834 -42.5 -15.501
s-29.833 -6.83398 -44.5 -9.50098l-126 -593c26 -3.33301 51.333 -11.333 76 -24l-5 -29h-253l5 29c8 4.66699 18.667 9 32 13s29.666 7.66699 48.999 11l126 595h-305l-125 -595c25.333 -5.33301 48.333 -13.333 69 -24z" />
    <glyph glyph-name="afii10034" unicode="&#x420;" horiz-adv-x="596" 
d="M169 53c17.333 -2 33.5 -5.16895 48.5 -9.50195s28.833 -9.16602 41.5 -14.499l-5 -29h-274l5 29c15.333 6.66699 30.166 11.667 44.499 15s28.833 6.33301 43.5 9l125 593c-14.667 2.66699 -28.334 6.16699 -41.001 10.5s-24.667 9.16602 -36 14.499l7 29h90
c26.667 0 55.834 1.33301 87.501 4s61.834 4 90.501 4c32 0 61.5 -3.16699 88.5 -9.5s50 -16.333 69 -30s33.833 -30.667 44.5 -51s16 -44.5 16 -72.5c0 -39.333 -7.16699 -75.666 -21.5 -108.999s-35 -62.333 -62 -87s-59.5 -44 -97.5 -58s-80.333 -21 -127 -21h-16.5
c-7.66699 0 -16 0.166992 -25 0.5s-18 0.833008 -27 1.5s-16.5 1.33398 -22.5 2.00098zM370 655.998c-16 0 -30.166 -0.501953 -42.499 -1.50195s-23.166 -2.16699 -32.499 -3.5l-68 -324c3.33301 -0.666992 8.16602 -1.33398 14.499 -2.00098s13 -1.16699 20 -1.5
s13.667 -0.666016 20 -0.999023s11.5 -0.5 15.5 -0.5c69.333 0 121.666 19.833 156.999 59.5s53 93.834 53 162.501c0 16.667 -1.83301 31.834 -5.5 45.501s-10.667 25.5 -21 35.5s-24.333 17.667 -42 23s-40.5 8 -68.5 8z" />
    <glyph glyph-name="afii10035" unicode="&#x421;" horiz-adv-x="635" 
d="M557 182l24.9961 -0.0078125c0 -18.667 -1.83301 -42.167 -5.5 -70.5s-9.16699 -55.833 -16.5 -82.5c-13.333 -7.33301 -27.666 -13.666 -42.999 -18.999s-31.333 -9.66602 -48 -12.999s-33 -5.66602 -49 -6.99902s-31 -2 -45 -2c-56.667 0 -104.667 8 -144 24
s-71.166 37 -95.499 63s-42 55 -53 87s-16.5 64 -16.5 96c0 68 9.66699 129.833 29 185.5s46.833 103.334 82.5 143.001s79 70.5 130 92.5s108.5 33 172.5 33c44 0 81.333 -3 112 -9s56.334 -14.333 77.001 -25c-2 -10.667 -4.83301 -23.167 -8.5 -37.5s-8 -29.5 -13 -45.5
s-10.167 -31.667 -15.5 -47l-15 -42h-26l-21 144c-8.66699 3.33301 -21.834 5.83301 -39.501 7.5s-34.834 2.5 -51.501 2.5c-44 0 -84.667 -8.5 -122 -25.5s-69.666 -42.167 -96.999 -75.5s-48.666 -75 -63.999 -125s-23 -108 -23 -174
c0 -41.333 7.16699 -76.166 21.5 -104.499s32.333 -51.166 54 -68.499s45.167 -29.666 70.5 -36.999s49.333 -10.666 72 -9.99902c22.667 -0.666992 41.834 1 57.501 5s27.167 8.33301 34.5 13z" />
    <glyph glyph-name="afii10036" unicode="&#x422;" horiz-adv-x="610" 
d="M401 0l-281.001 -0.000976562l5 29c16 6 31.833 10.833 47.5 14.5s32.834 6.83398 51.501 9.50098l126 595h-153l-83 -143h-26c0.666992 13.333 2.16699 28.5 4.5 45.5s4.83301 34.333 7.5 52s5.5 35 8.5 52s6.16699 32.167 9.5 45.5h580
c-2.66699 -13.333 -6 -28.333 -10 -45s-8.33301 -33.834 -13 -51.501s-9.5 -35 -14.5 -52s-9.83301 -32.5 -14.5 -46.5h-26l-21 143h-153l-126 -595c16 -3.33301 31.167 -6.66602 45.5 -9.99902s27.833 -8 40.5 -14z" />
    <glyph glyph-name="afii10037" unicode="&#x423;" horiz-adv-x="650" 
d="M609 646c-30.667 6 -57.333 14.332 -80 24.999l6 29h223l-6 -29c-9.33301 -4.66699 -20.333 -9.16699 -33 -13.5s-27.334 -8.16602 -44.001 -11.499l-296 -474c-41.333 -63.333 -79.5 -110.5 -114.5 -141.5s-71.5 -42.833 -109.5 -35.5
c-3.33301 6 -6.16602 13.667 -8.49902 23s-4.5 19 -6.5 29s-3.33301 20 -4 30s-0.333984 19 0.999023 27l29 24l105 -27c3.33301 2.66699 7.33301 6.66699 12 12s9.33398 11.333 14.001 18l13.5 20c4.33301 6.66699 7.83301 12.667 10.5 18l-158 477l-35 10.5
c-12 3.66699 -23.667 8.5 -35 14.5l6 29h263l-6 -29c-11.333 -5.33301 -24.5 -10 -39.5 -14s-30.833 -7.66699 -47.5 -11l106 -331l8 -64h2l34 66z" />
    <glyph glyph-name="afii10038" unicode="&#x424;" horiz-adv-x="776" 
d="M380 700l225.002 -0.00292969l-6 -29c-8 -4.66699 -17.667 -9 -29 -13s-25.333 -7.66699 -42 -11l-11 -51c14 3.33301 28.5 5.33301 43.5 6s27.833 1 38.5 1c32 0 59.667 -4.66699 83 -14s42.5 -22.166 57.5 -38.499s26.167 -35.666 33.5 -57.999s11 -46.166 11 -71.499
c0 -43.333 -7 -84 -21 -122s-34 -71.167 -60 -99.5s-57.333 -50.666 -94 -66.999s-77.334 -24.5 -122.001 -24.5c-7.33301 0 -18.333 0.5 -33 1.5s-27.667 2.5 -39 4.5l-12 -61c25.333 -6.66699 45.333 -14.667 60 -24l-6 -29h-225l5 29c22.667 10 48 17.667 76 23l13 60
c-13.333 -1.33301 -25.333 -2.33301 -36 -3s-21 -1 -31 -1c-24.667 0 -49 3.66699 -73 11s-45.333 18.5 -64 33.5s-33.667 34.167 -45 57.5s-17 50.666 -17 81.999c0 42 7.16699 81.833 21.5 119.5s34.5 70.667 60.5 99s57.5 50.833 94.5 67.5s78.167 25 123.5 25
c8.66699 0 20.167 -0.333008 34.5 -1s26.166 -1.66699 35.499 -3l10 48c-14.667 3.33301 -27.5 6.83301 -38.5 10.5s-20.167 8.16699 -27.5 13.5zM563.002 555.997c-10 0 -19.4971 -0.334961 -28.4971 -1.00195s-18.167 -2.33398 -27.5 -5.00098l-83 -392
c6 -1.33301 15.167 -2.16602 27.5 -2.49902s21.166 -0.5 26.499 -0.5c34 0 64.167 6.83301 90.5 20.5s48.333 32.334 66 56.001s31.167 51.334 40.5 83.001s13.666 65.834 12.999 102.501c0.666992 47.333 -10.333 82.166 -33 104.499s-53.334 33.833 -92.001 34.5z
M290.005 154.995c8 0 16.502 0.500977 25.502 1.50098s16.167 2.16699 21.5 3.5l84 393c-7.33301 1.33301 -16.5 2.16602 -27.5 2.49902s-20.5 0.5 -28.5 0.5c-32 0 -61 -6.33301 -87 -19s-48.167 -30.5 -66.5 -53.5s-32.333 -50.167 -42 -81.5s-14.167 -66 -13.5 -104
c-0.666992 -22.667 2.83301 -42.834 10.5 -60.501s17.667 -32.667 30 -45s26.666 -21.666 42.999 -27.999s33.166 -9.5 50.499 -9.5z" />
    <glyph glyph-name="afii10039" unicode="&#x425;" horiz-adv-x="661" 
d="M499 700l230.002 -0.000976562l-7 -29c-12 -5.33301 -24.833 -10 -38.5 -14s-27.5 -7.66699 -41.5 -11l-238 -271l137 -322c30.667 -5.33301 55.667 -13.333 75 -24l-5 -29h-266l5 29c25.333 12 52.333 20 81 24l-101 251l-210 -252c13.333 -2 26.5 -4.5 39.5 -7.5
s25.167 -8.16699 36.5 -15.5l-6 -29h-230l6 29c13.333 6.66699 26.666 11.667 39.999 15s26.666 6.33301 39.999 9l262 299l-124 294c-13.333 3.33301 -26 6.83301 -38 10.5s-24 8.5 -36 14.5l6 29h266l-6 -29c-20.667 -9.33301 -48 -17.666 -82 -24.999l89 -226l187 226
l-38 10c-12.667 3.33301 -25.667 8.33301 -39 15z" />
    <glyph glyph-name="afii10040" unicode="&#x426;" horiz-adv-x="723" 
d="M-20 0l5.00195 28.998c20.667 8.66699 50 17 88 25l125 592c-24.667 4 -50.334 12.333 -77.001 25l7 29h253l-7 -29c-20 -9.33301 -46.667 -17.666 -80 -24.999l-125 -594h298l127 594c-12 2.66699 -23.833 6 -35.5 10s-23.167 9 -34.5 15l6 29h253l-6 -29
c-14 -5.33301 -28.333 -10.166 -43 -14.499s-29.334 -7.83301 -44.001 -10.5l-127 -594h115c-3.33301 -14 -7.33301 -29.833 -12 -47.5s-10 -35.667 -16 -54l-18.5 -54l-17.5 -47.5h-25l-6 151h-603z" />
    <glyph glyph-name="afii10041" unicode="&#x427;" horiz-adv-x="627" 
d="M558 0l-253.997 -0.000976562l5 29c17.333 7.33301 34.166 12.833 50.499 16.5s32.166 6.16699 47.499 7.5l55 257c-20.667 -10 -47.167 -20 -79.5 -30s-68.5 -15 -108.5 -15c-28 0 -52.667 4 -74 12s-38.333 20.667 -51 38s-20.5 39.333 -23.5 66s-0.5 59 7.5 97l36 168
c-11.333 2.66699 -23 6 -35 10s-22.667 9 -32 15l6 29h234l-7 -29c-9.33301 -4.66699 -19.666 -9.16699 -30.999 -13.5s-24.333 -8.16602 -39 -11.499l-35 -164c-5.33301 -26 -8.16602 -49.167 -8.49902 -69.5s2.66699 -37.5 9 -51.5s16.666 -24.833 30.999 -32.5
s33.166 -11.5 56.499 -11.5c28 0 55 4 81 12s50.333 17.667 73 29l61 288c-24 6 -46 14.333 -66 25l6 29h233l-6 -29c-10 -5.33301 -21 -10 -33 -14s-24.667 -7.66699 -38 -11l-126 -593c12 -2.66699 23.167 -6 33.5 -10s19.166 -8.66699 26.499 -14z" />
    <glyph glyph-name="afii10042" unicode="&#x428;" horiz-adv-x="921" 
d="M452 700l226.001 -0.00195312l-7 -29c-10 -5.33301 -21.333 -10.166 -34 -14.499s-24.667 -7.83301 -36 -10.5l-126 -594h221l127 594c-11.333 3.33301 -22.333 7 -33 11s-20.334 8.66699 -29.001 14l6 29h233l-6 -29c-11.333 -5.33301 -23.166 -10.166 -35.499 -14.499
s-25.5 -7.83301 -39.5 -10.5l-126 -593c12 -2.66699 23.5 -6 34.5 -10s20.833 -8.66699 29.5 -14l-5 -29h-872l5 29c26.667 12 52.667 20 78 24l125 593c-12 3.33301 -24 7 -36 11s-22.333 8.66699 -31 14l7 29h232l-6 -29c-9.33301 -5.33301 -19.833 -10 -31.5 -14
s-24.5 -7.66699 -38.5 -11l-126 -594h221l126 594c-11.333 3.33301 -22.333 7 -33 11s-19.334 8.66699 -26.001 14z" />
    <glyph glyph-name="afii10043" unicode="&#x429;" horiz-adv-x="940" 
d="M-20 0l5.00293 29c12 5.33301 24.167 10 36.5 14s26.166 7.33301 41.499 10l125 593c-12 2.66699 -24 6 -36 10s-22.333 9 -31 15l7 29h232l-6 -29c-9.33301 -5.33301 -19.833 -10 -31.5 -14s-24.5 -7.66699 -38.5 -11l-126 -594h221l126 594
c-10.667 3.33301 -21.167 7 -31.5 11s-19.5 8.66699 -27.5 14l6 29h226l-7 -29c-8.66699 -5.33301 -18.834 -10 -30.501 -14s-24.834 -7.66699 -39.501 -11l-126 -594h221l127 594c-11.333 3.33301 -22.5 7 -33.5 11s-20.5 8.66699 -28.5 14l6 29h234l-7 -29
c-21.333 -12 -46.333 -20.333 -75 -25l-127 -595h115c-3.33301 -13.333 -7.5 -28.833 -12.5 -46.5s-10.5 -35.667 -16.5 -54l-18 -54.5c-6 -18 -11.667 -33.667 -17 -47h-25l-6 151h-832z" />
    <glyph glyph-name="afii10044" unicode="&#x42a;" horiz-adv-x="706" 
d="M520 700l-6 -28.999c-13.333 -5.33301 -27.666 -10.166 -42.999 -14.499s-32.333 -7.83301 -51 -10.5l-48 -229c12.667 2.66699 27.834 4.5 45.501 5.5s33.167 1.5 46.5 1.5c31.333 0 60.333 -3.16699 87 -9.5s49.5 -16 68.5 -29s33.833 -29.333 44.5 -49
s16 -42.834 16 -69.501c0 -43.333 -7.33301 -81.666 -22 -114.999s-35.834 -61.5 -63.501 -84.5s-61.5 -40.5 -101.5 -52.5s-85 -18 -135 -18c-3.33301 0 -9.83301 0.166992 -19.5 0.5s-20.5 0.666016 -32.5 0.999023s-24.667 0.666016 -38 0.999023s-25 0.5 -35 0.5h-128
l6 29c27.333 11.333 56.666 19.333 87.999 24l125 595h-128l-82 -143h-26c0.666992 14 2.16699 29.5 4.5 46.5s5 34.333 8 52l9 51.5c3 16.667 5.83301 31.667 8.5 45h402zM433 372.001c-16.667 0 -30.5 -0.501953 -41.5 -1.50195s-21.167 -2.5 -30.5 -4.5l-66 -312
c2.66699 -1.33301 7.16699 -2.16602 13.5 -2.49902s13 -0.833008 20 -1.5s13.667 -1 20 -1h15.5c30.667 0 58.667 4.16699 84 12.5s47.333 21.5 66 39.5s33.167 40.833 43.5 68.5s15.5 60.5 15.5 98.5c0 14 -2.16699 27.333 -6.5 40s-12 23.834 -23 33.501
s-25.5 17.167 -43.5 22.5s-40.333 8 -67 8z" />
    <glyph glyph-name="afii10045" unicode="&#x42b;" horiz-adv-x="834" 
d="M765 0l-253.001 -0.000976562l5 29c14 6.66699 27.833 11.667 41.5 15s27.834 6.33301 42.501 9l125 593l-35.5 10c-11.667 3.33301 -24.167 8.33301 -37.5 15l6 29h254l-6 -29c-24 -11.333 -52.333 -19.666 -85 -24.999l-125 -593c15.333 -2.66699 29 -6 41 -10
s22.667 -8.66699 32 -14zM-20.001 -0.000976562l4.99902 29.002c28.667 12 58 20 88 24l125 593c-13.333 2.66699 -26.333 6.16699 -39 10.5s-25.334 9.16602 -38.001 14.499l7 29h266l-7 -29c-13.333 -5.33301 -27.833 -10.333 -43.5 -15s-32.167 -8 -49.5 -10l-48 -229
c12.667 2.66699 27.834 4.5 45.501 5.5s33.167 1.5 46.5 1.5c66.667 0 117.5 -14.333 152.5 -43s52.5 -67 52.5 -115c0 -46 -7.83301 -85.833 -23.5 -119.5s-37.334 -61.667 -65.001 -84s-60.5 -38.833 -98.5 -49.5s-79.333 -16 -124 -16
c-3.33301 0 -9.66602 0.166992 -18.999 0.5s-20.166 0.666016 -32.499 0.999023l-38 1c-13 0.333008 -24.5 0.5 -34.5 0.5h-128zM306.998 372.001c-16 0 -29.667 -0.501953 -41 -1.50195s-21.666 -2.5 -30.999 -4.5l-66 -312
c2.66699 -1.33301 7.16699 -2.16602 13.5 -2.49902s13 -0.833008 20 -1.5s13.667 -1 20 -1h15.5c61.333 0 109.833 18.333 145.5 55s53.167 91.334 52.5 164.001c0.666992 14 -1 27.333 -5 40s-10.833 23.667 -20.5 33s-22.834 16.833 -39.501 22.5s-38 8.5 -64 8.5z" />
    <glyph glyph-name="afii10046" unicode="&#x42c;" horiz-adv-x="580" 
d="M-20 0l4.99707 29.002c28.667 12 58 20 88 24l125 593c-13.333 2.66699 -26.333 6.16699 -39 10.5s-25.334 9.16602 -38.001 14.499l7 29h266l-6 -29c-13.333 -5.33301 -28 -10.333 -44 -15s-32.667 -8 -50 -10l-48 -229c12.667 2.66699 27.834 4.5 45.501 5.5
s33.167 1.5 46.5 1.5c66.667 0 119.334 -13.667 158.001 -41s58 -66.333 58 -117c0 -48 -8.5 -89 -25.5 -123s-40 -61.833 -69 -83.5s-63 -37.5 -102 -47.5s-80.833 -15 -125.5 -15c-3.33301 0 -9.66602 0.166992 -18.999 0.5s-20.166 0.666016 -32.499 0.999023l-38 1
c-13 0.333008 -24.5 0.5 -34.5 0.5h-128zM306.997 372.002c-16 0 -29.668 -0.501953 -41.001 -1.50195s-21.666 -2.5 -30.999 -4.5l-66 -312c2.66699 -1.33301 7.16699 -2.16602 13.5 -2.49902s13 -0.833008 20 -1.5s13.833 -1 20.5 -1h15
c30.667 0 58.834 4.16699 84.501 12.5s47.834 21.5 66.501 39.5s33.167 40.833 43.5 68.5s15.166 60.5 14.499 98.5c0.666992 14 -1.33301 27.333 -6 40s-12.334 23.834 -23.001 33.501s-25.167 17.167 -43.5 22.5s-40.833 8 -67.5 8z" />
    <glyph glyph-name="afii10047" unicode="&#x42d;" horiz-adv-x="622" 
d="M209 314c-0.666992 13.333 0.167969 26.5059 2.50098 39.5059s6.83301 25.833 13.5 38.5l288 -1c2.66699 40 -0.333008 76.667 -9 110s-22 61.666 -40 84.999s-40.167 41.5 -66.5 54.5s-55.5 19.5 -87.5 19.5c-16.667 0 -34.334 -1.83301 -53.001 -5.5
s-32.334 -8.16699 -41.001 -13.5l-78 -122h-26l2.5 31c1 12 2.33301 24.667 4 38s3.83398 27.166 6.50098 41.499s5.66699 28.166 9 41.499c12.667 7.33301 27.167 13.666 43.5 18.999s33.166 9.66602 50.499 12.999s34.5 5.66602 51.5 6.99902s32.5 2 46.5 2
c93.333 0 164.833 -25 214.5 -75s74.5 -120 74.5 -210c0 -62 -9.66699 -119.833 -29 -173.5s-47.166 -100.167 -83.499 -139.5s-80.5 -70.166 -132.5 -92.499s-111 -33.5 -177 -33.5c-44 0 -78.833 3.16699 -104.5 9.5s-48.5 15.166 -68.5 26.499
c4.66699 28.667 11.834 58.5 21.501 89.5s19.5 58.167 29.5 81.5h25l22 -144c9.33301 -3.33301 21.166 -6 35.499 -8s30.166 -3 47.499 -3c36.667 0 71.834 6.16699 105.501 18.5s64 31.333 91 57s50 57.5 69 95.5s32.167 82.333 39.5 133z" />
    <glyph glyph-name="afii10048" unicode="&#x42e;" horiz-adv-x="961" 
d="M234 0h-253.998l5 29c14 5.33301 28.167 10 42.5 14s29.5 7.33301 45.5 10l125 593c-24.667 4 -50.334 12.333 -77.001 25l7 29h254l-7 -29c-9.33301 -4 -19.833 -8.16699 -31.5 -12.5s-28.167 -8.5 -49.5 -12.5l-55 -261h115c9.33301 46 24 89 44 129
s44.833 74.667 74.5 104s64 52.333 103 69s82.167 25 129.5 25c48.667 0 89 -7.83301 121 -23.5s57.5 -35.834 76.5 -60.501s32.333 -52.167 40 -82.5s11.5 -60.5 11.5 -90.5c0 -55.333 -8.16699 -110.666 -24.5 -165.999s-40.5 -105.333 -72.5 -150
s-71.833 -81 -119.5 -109s-102.834 -42 -165.501 -42c-50.667 0 -92.167 10.5 -124.5 31.5s-57.166 48 -74.499 81s-28 70 -32 111s-3 81.5 3 121.5h-117l-58 -280c15.333 -3.33301 28.666 -7 39.999 -11s21.333 -8.33301 30 -13zM439.002 259
c0 -26 2.00293 -52 6.00293 -78s11.5 -49.5 22.5 -70.5s26.333 -38.167 46 -51.5s44.834 -19.666 75.501 -18.999c31.333 -0.666992 59.5 5.66602 84.5 18.999s47 31.333 66 54s35.333 48.834 49 78.501s24.834 60.667 33.501 93s15 65 19 98s6 64.5 6 94.5
c0.666992 18.667 -0.833008 38.667 -4.5 60s-11.334 41.166 -23.001 59.499s-27.834 33.5 -48.501 45.5s-47.667 18 -81 18c-29.333 0 -55.833 -6.16699 -79.5 -18.5s-44.834 -29 -63.501 -50s-34.834 -45.167 -48.501 -72.5s-24.834 -55.833 -33.501 -85.5
s-15.167 -59.667 -19.5 -90s-6.5 -58.5 -6.5 -84.5z" />
    <glyph glyph-name="afii10049" unicode="&#x42f;" horiz-adv-x="627" 
d="M694 700l-5.99902 -28.999c-11.333 -5.33301 -23.833 -10 -37.5 -14s-30.167 -7.66699 -49.5 -11l-125 -593c32 -5.33301 57 -13.333 75 -24l-5 -29h-265l5 29c28 12 59.333 20 94 24l50 241h-92c-20 -24 -38.5 -47.667 -55.5 -71l-50.5 -69
c-16.667 -22.667 -34 -44.667 -52 -66s-38 -42.333 -60 -63l-39 -25h-132l5 25l53 24c26 22.667 49.667 45.167 71 67.5l60 65l54 61.5l52 59c-9.33301 3.33301 -20.333 9 -33 17s-24.667 18.5 -36 31.5s-21 28.5 -29 46.5s-12 38.667 -12 62
c0 78.667 27.5 138.667 82.5 180s135.167 62.666 240.5 63.999c13.333 0 29.666 -0.5 48.999 -1.5s39.333 -1.5 60 -1.5h128zM346.001 337.001c6 0 13.5 0.167969 22.5 0.500977l27.5 1c9.33301 0.333008 18 1 26 2s14.333 2.16699 19 3.5l64 302
c-6 1.33301 -15.167 2.5 -27.5 3.5s-23.166 1.5 -32.499 1.5c-38 0 -70.167 -5.66699 -96.5 -17s-47.5 -26.333 -63.5 -45s-27.5 -39.5 -34.5 -62.5s-10.167 -46.5 -9.5 -70.5c-0.666992 -20 2.66602 -37.333 9.99902 -52s16.5 -26.834 27.5 -36.501
s22.5 -17.167 34.5 -22.5s23 -8 33 -8z" />
    <glyph glyph-name="afii10065" unicode="&#x430;" horiz-adv-x="535" 
d="M189 50c18 0 36.001 8.49902 54.001 25.499s35 37.5 51 61.5s30.333 49 43 75s22.667 47.667 30 65l32 171c-9.33301 6.66699 -18.333 11.334 -27 14.001s-20.667 4 -36 4c-30.667 0 -58.5 -9.5 -83.5 -28.5s-46.333 -43.5 -64 -73.5s-31.334 -63.333 -41.001 -100
s-14.5 -72.667 -14.5 -108c0 -34 4.16699 -60.167 12.5 -78.5s22.833 -27.5 43.5 -27.5zM347.001 195.999c-8.66699 -24 -19.499 -48.3311 -32.499 -72.998s-28 -47 -45 -67s-35.833 -36.333 -56.5 -49s-42.667 -19 -66 -19c-69.333 0 -104 50.333 -104 151
c0 46.667 6.66699 92.167 20 136.5s32.666 83.833 57.999 118.5s56.166 62.5 92.499 83.5s77.5 31.5 123.5 31.5c16.667 0 30 -1.5 40 -4.5s22 -7.5 36 -13.5c26.667 14 54.667 21 84 21l-90 -457h73v-25c-13.333 -10.667 -29.333 -19.334 -48 -26.001s-37 -10 -55 -10
c-19.333 0 -33.166 4.16699 -41.499 12.5s-12.5 17.166 -12.5 26.499c0 12 2.33301 31.667 7 59s11.667 62 21 104h-4z" />
    <glyph glyph-name="afii10066" unicode="&#x431;" horiz-adv-x="514" 
d="M41 189c0 46.667 3.83301 93.668 11.5 141.001s19.5 92 35.5 134s36.333 79.833 61 113.5s54 60.167 88 79.5c33.333 19.333 68.833 32.333 106.5 39s76.167 11.334 115.5 14.001l64 52h25c-1.33301 -19.333 -6.33301 -39.333 -15 -60s-18.667 -38 -30 -52
c-7.33301 -10 -17.666 -17 -30.999 -21s-29 -6.66699 -47 -8c-53.333 -4.66699 -98 -12.334 -134 -23.001s-66 -27 -90 -49s-43.667 -51.333 -59 -88s-28.333 -83.334 -39 -140.001h5c14.667 30 31.5 56.667 50.5 80s39 43.166 60 59.499s42.333 28.833 64 37.5
s43.167 13 64.5 13c20.667 0 39.167 -4.16699 55.5 -12.5s30 -20 41 -35s19.5 -32.5 25.5 -52.5s9 -42 9 -66c0 -43.333 -6.83301 -86.166 -20.5 -128.499s-32.834 -80.5 -57.501 -114.5s-53.667 -61.5 -87 -82.5s-70 -31.5 -110 -31.5c-24 0 -45.833 4.16699 -65.5 12.5
s-36.667 20.833 -51 37.5s-25.5 37.5 -33.5 62.5s-12 54.5 -12 88.5zM155 332.001c-9.33301 -20 -15.666 -43.3311 -18.999 -69.998s-5 -58.334 -5 -95.001c0 -48 8 -82.667 24 -104s35.667 -32 59 -32c22.667 0 44.167 8.5 64.5 25.5s38.166 39.167 53.499 66.5
s27.5 58.666 36.5 93.999s13.5 71.333 13.5 108c0 44 -6.5 75.667 -19.5 95s-33.5 29 -61.5 29c-18 0 -35 -4.5 -51 -13.5s-30.5 -19.833 -43.5 -32.5s-23.833 -25.5 -32.5 -38.5s-15 -23.833 -19 -32.5z" />
    <glyph glyph-name="afii10067" unicode="&#x432;" horiz-adv-x="487" 
d="M441 416c0 -32 -11.9971 -59.1699 -35.9971 -81.5029s-58 -41.5 -102 -57.5c22.667 -1.33301 41.5 -5.16602 56.5 -11.499s27.167 -14.333 36.5 -24s16 -20 20 -31s6 -21.833 6 -32.5c0 -22 -5.33301 -44.167 -16 -66.5s-25.5 -42.666 -44.5 -60.999
s-41.833 -33.333 -68.5 -45s-56 -17.5 -88 -17.5c-28.667 0 -53.334 4.33301 -74.001 13s-37.834 20.5 -51.501 35.5s-23.667 32.5 -30 52.5s-9.5 41.667 -9.5 65c0 34.667 3.66699 68 11 100s17.166 61.5 29.499 88.5s27 51.167 44 72.5s35.167 39 54.5 53
c39.333 29.333 87.333 44 144 44c32 0 59.667 -8.16699 83 -24.5s35 -40.166 35 -71.499zM332.003 160.997c-0.666992 27.333 -8.16797 47.499 -22.501 60.499s-37.833 22.5 -70.5 28.5c-14.667 -3.33301 -30.667 -6 -48 -8s-35 -3.66699 -53 -5
c-2 -9.33301 -3.83301 -20.166 -5.5 -32.499s-2.5 -25.5 -2.5 -39.5c0 -38 8 -69.833 24 -95.5s41.333 -38.5 76 -38.5c10 0 21 3 33 9s23 14.667 33 26s18.333 25 25 41s10.334 34 11.001 54zM305.002 468.996c-15.333 -0.666992 -30.667 -4.33398 -46 -11.001
s-30 -17.667 -44 -33s-27.167 -35.333 -39.5 -60s-23.5 -54.667 -33.5 -90c31.333 0 59.833 3.66699 85.5 11s47.667 17.333 66 30s32.5 27.334 42.5 44.001s15 34 15 52c0 13.333 -3.33301 26 -10 38s-18.667 18.333 -36 19z" />
    <glyph glyph-name="afii10068" unicode="&#x433;" horiz-adv-x="390" 
d="M16 94c0 22.667 6.33105 43.333 18.998 62s28.5 36.167 47.5 52.5s39.5 31.666 61.5 45.999s42.5 28.5 61.5 42.5s34.833 28.333 47.5 43s19 30 19 46c0 17.333 -3.5 32.333 -10.5 45s-22.167 19 -45.5 19s-45.5 -6.16699 -66.5 -18.5s-37.833 -24.833 -50.5 -37.5
l-15 17c5.33301 10 13.333 20.833 24 32.5s23.5 22.667 38.5 33s31.333 18.833 49 25.5s36.167 10 55.5 10c38.667 0 67.5 -9.5 86.5 -28.5s28.5 -40.833 28.5 -65.5s-6.33301 -46.667 -19 -66s-28.5 -37.166 -47.5 -53.499s-39.5 -31.666 -61.5 -45.999
s-42.5 -28.666 -61.5 -42.999s-34.833 -29.333 -47.5 -45s-19 -32.5 -19 -50.5c0 -17.333 5.66699 -32.333 17 -45s31 -19 59 -19c24.667 0 47.834 5.5 69.501 16.5s40.834 23.167 57.501 36.5l14 -15c-8.66699 -12 -19.5 -24 -32.5 -36s-28 -22.833 -45 -32.5
s-35.5 -17.334 -55.5 -23.001s-41 -8.5 -63 -8.5c-15.333 0 -30 2.66699 -44 8s-26.333 12.666 -37 21.999s-19 20.5 -25 33.5s-9 27.167 -9 42.5z" />
    <glyph glyph-name="afii10069" unicode="&#x434;" horiz-adv-x="496" 
d="M29 168c0 40.667 6.83301 81.165 20.5 121.498s33.334 76.5 59.001 108.5s56.667 58 93 78s77.166 30 122.499 30c12 0 24 -1.33301 36 -4s21.667 -6.66699 29 -12c0 20.667 -1.83301 43.334 -5.5 68.001s-10 47.667 -19 69s-21.5 39.166 -37.5 53.499s-36 21.5 -60 21.5
c-24.667 0 -44.834 -2.33301 -60.501 -7s-31.167 -11 -46.5 -19l-13 19c7.33301 8 17 15.5 29 22.5s25.167 13.333 39.5 19s29.333 10 45 13s31.167 4.5 46.5 4.5c26 0 49.5 -5.66699 70.5 -17s39 -28.666 54 -51.999s26.667 -53 35 -89s12.5 -79 12.5 -129
c0 -68 -8.16699 -131.167 -24.5 -189.5s-38.166 -109 -65.499 -152s-59.5 -76.667 -96.5 -101s-75.833 -36.5 -116.5 -36.5c-48 0 -84.5 15.833 -109.5 47.5s-37.5 75.834 -37.5 132.501zM314 462.998c-36.667 -0.666992 -67.333 -11.002 -92 -31.002s-44.667 -45 -60 -75
s-26.333 -62.333 -33 -97s-10 -67 -10 -97c0 -15.333 1 -30.666 3 -45.999s6 -29.5 12 -42.5s14.333 -23.5 25 -31.5s24.667 -12 42 -12c22 0 44.167 10.5 66.5 31.5s42.5 50 60.5 87s32.667 80.5 44 130.5s17 104 17 162c-14.667 8 -27.667 13.333 -39 16
s-23.333 4.33398 -36 5.00098z" />
    <glyph glyph-name="afii10070" unicode="&#x435;" horiz-adv-x="454" 
d="M392 89c-6 -12.667 -14.668 -25 -26.001 -37s-24.666 -22.833 -39.999 -32.5s-32.666 -17.334 -51.999 -23.001s-40 -8.5 -62 -8.5c-55.333 0 -97.833 15.833 -127.5 47.5s-44.5 75.5 -44.5 131.5c0 47.333 6.66699 92 20 134s32 78.667 56 110s53.167 56 87.5 74
s72.5 27 114.5 27c32 0 59.5 -8.16699 82.5 -24.5s34.5 -40.5 34.5 -72.5c0 -47.333 -23.5 -84.666 -70.5 -111.999s-122.833 -45 -227.5 -53c-2.66699 -11.333 -4.5 -22.333 -5.5 -33s-1.5 -21 -1.5 -31c0 -40 10.167 -72.667 30.5 -98s50.166 -38 89.499 -38
c12.667 0 25.167 2 37.5 6s24 9 35 15s21 12.333 30 19l23.5 18zM286.999 469c-28.667 -0.666992 -55.333 -14.167 -80 -40.5s-45.667 -71.5 -63 -135.5c64.667 2 115 13.167 151 33.5s54 48.5 54 84.5c0 14 -4.16699 27 -12.5 39s-24.833 18.333 -49.5 19z" />
    <glyph glyph-name="afii10072" unicode="&#x436;" horiz-adv-x="786" 
d="M58 430c17.333 24 36.3301 42.666 56.9971 55.999s44.667 20 72 20c14 0 26.5 -3.5 37.5 -10.5s20.5 -16.5 28.5 -28.5s14 -25.833 18 -41.5s6 -31.834 6 -48.501c0 -36 -3 -70.333 -9 -103h92l46 226h81l-47 -226h92c8.66699 34 20.334 65.167 35.001 93.5
s31.167 52.833 49.5 73.5s38.666 36.667 60.999 48s45.5 17 69.5 17c18 0 30.667 -1.16699 38 -3.5s15.333 -5.5 24 -9.5c0.666992 -7.33301 0.166992 -15.5 -1.5 -24.5s-4.83398 -18 -9.50098 -27s-10.5 -17.667 -17.5 -26s-15.5 -15.166 -25.5 -20.499l-43 58
c-12 -3.33301 -24.667 -12 -38 -26s-25.666 -33.167 -36.999 -57.5s-20.666 -53.666 -27.999 -87.999s-10.666 -73.5 -9.99902 -117.5c-0.666992 -38 4.83301 -65.5 16.5 -82.5s27.834 -25.5 48.501 -25.5c11.333 0 21.5 2.33301 30.5 7s18.167 11.667 27.5 21l11 -14
c-13.333 -20.667 -31 -38.5 -53 -53.5s-45 -22.5 -69 -22.5c-17.333 0 -32.166 3.5 -44.499 10.5s-22.5 16.5 -30.5 28.5s-13.833 25.833 -17.5 41.5s-5.5 32.167 -5.5 49.5c0 18.667 0.666992 36.834 2 54.501s3.33301 35.167 6 52.5h-90l-47 -231h-80l47 231h-92
c-9.33301 -34.667 -21.333 -66.5 -36 -95.5s-31.5 -54 -50.5 -75s-39.667 -37.333 -62 -49s-45.5 -17.5 -69.5 -17.5c-18.667 0 -31.834 1.33301 -39.501 4s-15.5 5.66699 -23.5 9c-1.33301 8.66699 -1 18 1 28s5.33301 19.5 10 28.5s10.667 17.333 18 25
s15.666 13.5 24.999 17.5l43 -59c14.667 4 29.167 13.167 43.5 27.5s26.833 33.666 37.5 57.999s19.334 53.5 26.001 87.5s9.66699 72.667 9 116c0.666992 38 -3.33301 65.5 -12 82.5s-23 25.5 -43 25.5c-24.667 0 -47 -9.33301 -67 -28z" />
    <glyph glyph-name="afii10073" unicode="&#x437;" horiz-adv-x="439" 
d="M-12 36c0.666992 8.66699 2.66504 17.4971 5.99805 26.4971s7.66602 17.833 12.999 26.5s11.333 16.667 18 24s14 13.333 22 18l68 -95c5.33301 -1.33301 12.333 -2.5 21 -3.5s15.667 -1.5 21 -1.5c15.333 0 31 3 47 9s30.5 14.5 43.5 25.5s23.667 24.667 32 41
s12.833 34.5 13.5 54.5c-0.666992 26.667 -8 46 -22 58s-37.667 20.667 -71 26l-70 -18c-3.33301 8.66699 -4.83301 17.667 -4.5 27s1.83301 18.333 4.5 27h71c36 11.333 63 28.5 81 51.5s26.667 45.167 26 66.5c0.666992 20 -5.33301 36.667 -18 50s-33.334 20 -62.001 20
c-5.33301 0 -12.666 -0.5 -21.999 -1.5s-17.333 -2.16699 -24 -3.5c-9.33301 -10.667 -19.833 -24.667 -31.5 -42s-22.5 -32.666 -32.5 -45.999c-6 2.66699 -11.833 7.33398 -17.5 14.001s-10.5 14.334 -14.5 23.001s-6.66699 18 -8 28s-0.666016 19.667 2.00098 29
c6 4 14 8.33301 24 13s22.5 9.16699 37.5 13.5s32.167 8 51.5 11s41.666 4.5 66.999 4.5c18.667 0 36.334 -2 53.001 -6s31.334 -10 44.001 -18s22.667 -18 30 -30s11 -26 11 -42c0 -63.333 -44.667 -111.333 -134 -144c20.667 0 38.5 -3 53.5 -9s27.333 -13.667 37 -23
s16.834 -20.166 21.501 -32.499s7 -24.5 7 -36.5c0 -24 -5.33301 -47.167 -16 -69.5s-25.834 -41.833 -45.501 -58.5s-43.667 -30 -72 -40s-60.166 -15 -95.499 -15c-37.333 0 -70.333 4.16699 -99 12.5s-51 20.166 -67 35.499z" />
    <glyph glyph-name="afii10074" unicode="&#x438;" horiz-adv-x="542" 
d="M488 55l0.00292969 -24.999c-13.333 -10.667 -29.5 -19.334 -48.5 -26.001s-37.5 -10 -55.5 -10c-19.333 0 -33.166 4 -41.499 12s-12.5 16.667 -12.5 26c0 12 1.66699 32.167 5 60.5s10.666 62.833 21.999 103.5h-4c-8.66699 -18.667 -19.5 -40 -32.5 -64
s-28.5 -46.667 -46.5 -68s-38.5 -39.333 -61.5 -54s-48.5 -22 -76.5 -22c-23.333 0 -43 8.16699 -59 24.5s-24 39.5 -24 69.5c0 14.667 2.33301 36.334 7 65.001s10.334 60 17.001 94l21.5 104.5l20.5 96.5l-61 9v25c10.667 4 22.167 8 34.5 12s24.666 7.66699 36.999 11
s24.166 6.16602 35.499 8.49902s21.666 3.83301 30.999 4.5l22 -12c-10.667 -50 -21.5 -97.5 -32.5 -142.5s-21.167 -92.5 -30.5 -142.5c-3.33301 -16 -6.83301 -33.833 -10.5 -53.5s-5.5 -41.167 -5.5 -64.5c0 -14 3.83301 -25.333 11.5 -34s16.5 -13 26.5 -13
c14.667 0 29.334 4.33301 44.001 13s28.5 20 41.5 34s25.333 29.5 37 46.5s22.167 33.833 31.5 50.5s17.166 32.167 23.499 46.5s11.166 25.833 14.499 34.5l44 225h83l-82 -445h74z" />
    <glyph glyph-name="afii10075" unicode="&#x439;" horiz-adv-x="542" 
d="M488 55l0.00292969 -24.999c-13.333 -10.667 -29.5 -19.334 -48.5 -26.001s-37.5 -10 -55.5 -10c-19.333 0 -33.166 4 -41.499 12s-12.5 16.667 -12.5 26c0 12 1.66699 32.167 5 60.5s10.666 62.833 21.999 103.5h-4c-8.66699 -18.667 -19.5 -40 -32.5 -64
s-28.5 -46.667 -46.5 -68s-38.5 -39.333 -61.5 -54s-48.5 -22 -76.5 -22c-23.333 0 -43 8.16699 -59 24.5s-24 39.5 -24 69.5c0 14.667 2.33301 36.334 7 65.001s10.334 60 17.001 94l21.5 104.5l20.5 96.5l-61 9v25c10.667 4 22.167 8 34.5 12s24.666 7.66699 36.999 11
s24.166 6.16602 35.499 8.49902s21.666 3.83301 30.999 4.5l22 -12c-10.667 -50 -21.5 -97.5 -32.5 -142.5s-21.167 -92.5 -30.5 -142.5c-3.33301 -16 -6.83301 -33.833 -10.5 -53.5s-5.5 -41.167 -5.5 -64.5c0 -14 3.83301 -25.333 11.5 -34s16.5 -13 26.5 -13
c14.667 0 29.334 4.33301 44.001 13s28.5 20 41.5 34s25.333 29.5 37 46.5s22.167 33.833 31.5 50.5s17.166 32.167 23.499 46.5s11.166 25.833 14.499 34.5l44 225h83l-82 -445h74zM341.003 560.001c-30 0 -54.002 4.50098 -72.002 13.501s-31.667 19.833 -41 32.5
s-15.166 26 -17.499 40s-2.83301 26.333 -1.5 37c10.667 8 22.334 14.333 35.001 19s26 7.66699 40 9l25 -13v-77c4 -3.33301 9.16699 -6.33301 15.5 -9s14.833 -4 25.5 -4c29.333 0 55 9.16699 77 27.5s37.333 40.166 46 65.499c6 0 12.5 -1.5 19.5 -4.5
s12.167 -6.83301 15.5 -11.5c-4 -14 -10.5 -28.333 -19.5 -43s-20.5 -28 -34.5 -40s-30.333 -22 -49 -30s-40 -12 -64 -12z" />
    <glyph glyph-name="afii10076" unicode="&#x43a;" horiz-adv-x="511" 
d="M310 47c-21.333 36 -39.666 69.8359 -54.999 101.503l-43 89.5l-36 10l-47 -248h-86l87 442l-70 9v25c19.333 8.66699 42.833 16.5 70.5 23.5s53.167 11.167 76.5 12.5l21 -11l-45 -227h29c14 8.66699 29 19.334 45 32.001s31.333 25.667 46 39s28 26.166 40 38.499
s21 22.833 27 31.5c0.666992 4.66699 1.16699 11 1.5 19s0.333008 16.167 0 24.5l-1 24c-0.333008 7.66699 -0.833008 13.5 -1.5 17.5c24.667 8.66699 48.667 13 72 13s43 -4.33301 59 -13c-9.33301 -20.667 -23.5 -41.834 -42.5 -63.501s-39.333 -42.334 -61 -62.001
s-42.834 -37.5 -63.501 -53.5l-49 -37c4.66699 -12.667 12.5 -29.167 23.5 -49.5l36 -63.5l39.5 -64l34 -52h63v-25c-13.333 -10.667 -27.833 -19.334 -43.5 -26.001s-32.167 -10 -49.5 -10c-16 0 -29.833 4 -41.5 12s-23.5 21.667 -35.5 41z" />
    <glyph glyph-name="afii10077" unicode="&#x43b;" horiz-adv-x="514" 
d="M379 457l-117.008 0.00195312c-8 -36 -17.5 -73.833 -28.5 -113.5s-23.333 -78.5 -37 -116.5s-28.667 -73.5 -45 -106.5s-34.166 -60.833 -53.499 -83.5c-16 -19.333 -33 -32.5 -51 -39.5s-37.667 -10.167 -59 -9.5c-5.33301 6.66699 -9.66602 15.5 -12.999 26.5
s-4.66602 22.833 -3.99902 35.5c0 10.667 1.33301 21 4 31s7.33398 19.333 14.001 28l82 -34c12.667 16 25.834 38 39.501 66s26.667 58.833 39 92.5s23.833 68.5 34.5 104.5s19.334 70 26.001 102c-14 3.33301 -28.667 8.16602 -44 14.499s-26.666 12.833 -33.999 19.5v26
h335l-88 -444h74v-26c-13.333 -10.667 -29.333 -19.334 -48 -26.001s-37.667 -10 -57 -10s-33.166 4 -41.499 12s-12.5 16.667 -12.5 26c0 12.667 1.33301 26.5 4 41.5s5.66699 30.167 9 45.5z" />
    <glyph glyph-name="afii10078" unicode="&#x43c;" horiz-adv-x="707" 
d="M232 434l-23.501 -100c-8.33301 -36.667 -18.166 -73.334 -29.499 -110.001s-24.333 -71.5 -39 -104.5s-31.667 -60.833 -51 -83.5c-16 -19.333 -32 -32.166 -48 -38.499s-34.333 -9.5 -55 -9.5c-4.66699 7.33301 -8.5 16.5 -11.5 27.5s-4.16699 22.833 -3.5 35.5
c0 18.667 4.66699 35.334 14 50.001l78 -26c12.667 16 25 37.833 37 65.5s23.5 58.334 34.5 92.001s21 68.667 30 105s17.167 70.833 24.5 103.5c-13.333 5.33301 -25.666 10.666 -36.999 15.999s-19.666 11.333 -24.999 18v25h171l38 -300l3 -69h3l40 72l188 297h90
l-89 -444h74v-26c-13.333 -10.667 -29.333 -19.334 -48 -26.001s-37.334 -10 -56.001 -10c-19.333 0 -33.333 4 -42 12s-13 16.667 -13 26c0 12.667 1.66699 26.667 5 42l10 46l49 223c1.33301 6 3.16602 13 5.49902 21l7.5 25c2.66699 8.66699 5.5 17 8.5 25l7.5 20h-3
l-271 -434h-27l-20 195l-17 160l-5 79h-4z" />
    <glyph glyph-name="afii10079" unicode="&#x43d;" horiz-adv-x="552" 
d="M505 500l-87.998 -443.998h73v-26c-13.333 -10.667 -29.5 -19.334 -48.5 -26.001s-37.5 -10 -55.5 -10c-19.333 0 -33.333 4 -42 12s-13 16.667 -13 26c0 12 1.83301 25.667 5.5 41l10.5 46l22 113h-194l-48 -232h-84l88 442l-61 9l-1 25
c9.33301 4.66699 20.166 9.16699 32.499 13.5s25 8.16602 38 11.499s25.667 6 38 8s23.166 3 32.499 3l20 -12l-47 -225h194l44 225h84z" />
    <glyph glyph-name="afii10080" unicode="&#x43e;" horiz-adv-x="509" 
d="M41 186c0 35.333 5.5 72.167 16.5 110.5s27.833 73.5 50.5 105.5s51 58.333 85 79s73.667 31 119 31c52 0 91.167 -16 117.5 -48s39.5 -79.333 39.5 -142c0 -44 -6.33301 -86.167 -19 -126.5s-30.334 -75.833 -53.001 -106.5s-50 -55.167 -82 -73.5
s-67.333 -27.5 -106 -27.5c-51.333 0 -92.166 16.5 -122.499 49.5s-45.5 82.5 -45.5 148.5zM292 469.001c-32.667 -0.666992 -59.3311 -11.333 -79.998 -32s-37 -46.334 -49 -77.001s-20.333 -63.667 -25 -99s-7 -67.666 -7 -96.999c0 -39.333 8.66699 -71.333 26 -96
s40.666 -37 69.999 -37c23.333 0 44.166 8.83301 62.499 26.5s34 41 47 70s23 61.833 30 98.5s10.5 73.667 10.5 111c0 39.333 -6.83301 71 -20.5 95s-35.167 36.333 -64.5 37z" />
    <glyph glyph-name="afii10081" unicode="&#x43f;" horiz-adv-x="552" 
d="M386 285l12.5 57.5039c3.66699 17.667 5.5 35.167 5.5 52.5c0 15.333 -3.5 28.333 -10.5 39s-18.167 16 -33.5 16c-18 0 -36.333 -7.33301 -55 -22s-36 -32.334 -52 -53.001s-30.5 -42.167 -43.5 -64.5s-22.833 -40.833 -29.5 -55.5l-53 -255h-84l88 442l-61 9l2 25
c9.33301 4.66699 19.833 9.16699 31.5 13.5s23.667 8.16602 36 11.499s24.333 6 36 8s22.5 3 32.5 3l20 -12l-38 -177h5c12.667 26.667 27.167 51.5 43.5 74.5s33.666 43 51.999 60s37.5 30.333 57.5 40s40.333 14.5 61 14.5c28 0 48.5 -8.83301 61.5 -26.5
s19.5 -39.834 19.5 -66.501c0 -14.667 -1.66699 -33 -5 -55s-7.33301 -42.667 -12 -62l-57 -246h74v-26c-13.333 -10.667 -29.5 -19.334 -48.5 -26.001s-37.5 -10 -55.5 -10c-19.333 0 -32.666 4 -39.999 12s-11 16.667 -11 26c0 12.667 1.66699 26.5 5 41.5l10 45.5z" />
    <glyph glyph-name="afii10082" unicode="&#x440;" horiz-adv-x="542" 
d="M97 -146c23.333 -4 46.666 -12.334 69.999 -25.001v-29h-157l-9 9l43 199l93 434l-61 9v25c22 9.33301 45.167 17.666 69.5 24.999s47.166 11 68.499 11l20 -12l-41 -176h4c12 26.667 25.167 51.334 39.5 74.001s29.833 42.5 46.5 59.5s34.667 30.333 54 40
s40 14.5 62 14.5c14.667 0 28.667 -2.83301 42 -8.5s25 -14.334 35 -26.001s17.833 -26.167 23.5 -43.5s8.5 -37.333 8.5 -60c0 -51.333 -7.66699 -100.333 -23 -147s-36.166 -87.667 -62.499 -123s-57.166 -63.5 -92.499 -84.5s-73.333 -31.5 -114 -31.5
c-11.333 0 -21 0.333008 -29 1s-15 1.83398 -21 3.50098s-11.833 3.83398 -17.5 6.50098l-18.5 9zM352 449.999c-19.333 0 -37.668 -7.50293 -55.001 -22.5029s-33.5 -33.167 -48.5 -54.5s-28.5 -43.833 -40.5 -67.5s-21.667 -44.5 -29 -62.5l-39 -189
c9.33301 -8 19.166 -13.833 29.499 -17.5s26.833 -5.5 49.5 -5.5c26.667 0 51.834 9.83301 75.501 29.5s44.334 44.834 62.001 75.501s31.667 64.834 42 102.501s15.5 74.834 15.5 111.501c0 32 -5.5 56.667 -16.5 74s-26.167 26 -45.5 26z" />
    <glyph glyph-name="afii10083" unicode="&#x441;" horiz-adv-x="428" 
d="M382 89c-7.33301 -12.667 -16.667 -24.999 -28 -36.999s-24.666 -22.833 -39.999 -32.5s-32.5 -17.334 -51.5 -23.001s-39.833 -8.5 -62.5 -8.5c-49.333 0 -88.333 15.667 -117 47s-43 74 -43 128c0 48 7.66699 93.167 23 135.5s36.166 79.333 62.499 111
s57.333 56.667 93 75s73.834 27.5 114.501 27.5c25.333 0 46 -2 62 -6s28 -9.66699 36 -17c0.666992 -7.33301 0.166992 -15.5 -1.5 -24.5s-4.33398 -17.833 -8.00098 -26.5s-8.33398 -16.667 -14.001 -24s-11.5 -12.333 -17.5 -15l-68 70
c-22.667 -0.666992 -45.167 -7.66699 -67.5 -21s-42.333 -32.333 -60 -57s-32 -54.5 -43 -89.5s-16.167 -74.5 -15.5 -118.5c-0.666992 -46 8.5 -79.667 27.5 -101s44.833 -32 77.5 -32c14 0 27.167 2 39.5 6s23.833 9 34.5 15s20.334 12.333 29.001 19l23 18z" />
    <glyph glyph-name="afii10084" unicode="&#x442;" horiz-adv-x="800" 
d="M633 300c4 16 7.8291 32.6729 11.4961 50.0059s5.83398 31.666 6.50098 42.999c-0.666992 17.333 -3.5 31.166 -8.5 41.499s-15.167 15.5 -30.5 15.5c-16 0 -32.333 -6.33301 -49 -19s-32.5 -28.667 -47.5 -48s-28.667 -40.333 -41 -63s-22.5 -44 -30.5 -64l-61 -256h-80
l63 281c4.66699 20.667 8.66699 40.5 12 59.5s5 38.833 5 59.5c0 15.333 -2.66699 27.5 -8 36.5s-14.666 13.5 -27.999 13.5s-28 -6.33301 -44 -19s-31.667 -28.667 -47 -48s-29.5 -40.333 -42.5 -63s-23.5 -44.334 -31.5 -65.001l-53 -255h-86l93 442l-61 9v25
c22 11.333 45.833 20.166 71.5 26.499s47.834 9.5 66.501 9.5l21 -12l-44 -177h4c8 18.667 19.167 39 33.5 61s30.833 42.5 49.5 61.5s38.667 34.833 60 47.5s42.666 19 63.999 19c8 0 16 -1.33301 24 -4s15 -7.5 21 -14.5s11 -16.5 15 -28.5s6 -27.333 6 -46
c0 -14.667 -1.5 -30.334 -4.5 -47.001s-6.5 -33 -10.5 -49c10 22.667 22.667 45.167 38 67.5s32 42.5 50 60.5s37.167 32.667 57.5 44s41.166 17 62.499 17c25.333 0 44.5 -8 57.5 -24s19.5 -38 19.5 -66c0 -21.333 -2 -41.5 -6 -60.5l-13 -61.5l-65 -244h74v-26
c-13.333 -10.667 -29.666 -19.334 -48.999 -26.001s-37.666 -10 -54.999 -10c-19.333 0 -32.666 4.33301 -39.999 13s-11 19 -11 31c0 19.333 4.66699 46 14 80z" />
    <glyph glyph-name="afii10085" unicode="&#x443;" horiz-adv-x="455" 
d="M88 442l-63.9971 8.00391v25c3.33301 2.66699 8.83301 6 16.5 10s16.5 8 26.5 12s20.333 7.5 31 10.5s20.667 4.5 30 4.5c14 0 24.167 -3.5 30.5 -10.5s11.166 -16.167 14.499 -27.5l83 -350l3 -60h2l23 59c8.66699 18.667 17.5 39.167 26.5 61.5l26.5 67.5
c8.66699 22.667 16.667 45 24 67s13.666 42.333 18.999 61c0 7.33301 -0.833008 17 -2.5 29s-3.5 24 -5.5 36s-4 23.167 -6 33.5s-3.66699 17.5 -5 21.5c9.33301 4 19.333 7 30 9s21 3 31 3c20 0 37.667 -4 53 -12c-20.667 -82.667 -48.834 -165.334 -84.501 -248.001
s-75.167 -166.667 -118.5 -252c-36 -70 -72 -122.333 -108 -157s-76.667 -52 -122 -52c-10 0 -19.5 1.33301 -28.5 4s-18.5 6.66699 -28.5 12c-0.666992 7.33301 0 15.666 2 24.999s5.16699 18.666 9.5 27.999s10 18 17 26s14.833 14.333 23.5 19l81 -42
c4.66699 3.33301 10.667 8.16602 18 14.499s15 15 23 26s16 24.333 24 40s15.667 34.5 23 56.5z" />
    <glyph glyph-name="afii10086" unicode="&#x444;" horiz-adv-x="702" 
d="M311 -146c22 -4 45.3311 -12.3311 69.998 -24.998v-29h-151l-9 8l55 251c-16.667 -21.333 -34.834 -39 -54.501 -53s-45.167 -21 -76.5 -21c-29.333 0 -54.166 10.667 -74.499 32s-30.5 57.666 -30.5 108.999c0 58 6.83301 110.5 20.5 157.5s31.834 87.333 54.501 121
s48.834 59.5 78.501 77.5s60.167 27 91.5 27c15.333 0 28.833 -2 40.5 -6s21.834 -9.66699 30.501 -17l34 196l-70 9v25c19.333 8.66699 42.166 16 68.499 22s50.833 10.667 73.5 14l20 -11l-55 -292c11.333 15.333 28 29.666 50 42.999s48.667 20 80 20
c14.667 0 28.334 -2.5 41.001 -7.5s23.667 -13.167 33 -24.5s16.666 -25.833 21.999 -43.5s8 -39.5 8 -65.5c0 -58 -6.83301 -110.5 -20.5 -157.5s-31.834 -87.333 -54.501 -121s-48.834 -59.5 -78.501 -77.5s-60.167 -27 -91.5 -27c-19.333 0 -34.666 4 -45.999 12
s-19.666 16.667 -24.999 26zM518.998 462.002c-23.333 0 -43.334 -6.33301 -60.001 -19s-30.667 -26 -42 -40l-64 -349c5.33301 -7.33301 13 -13 23 -17s23 -6 39 -6c22.667 0 43.834 9.83301 63.501 29.5s36.667 45.5 51 77.5s25.5 68 33.5 108s12 80.667 12 122
c0 32 -5 55.667 -15 71s-23.667 23 -41 23zM182.997 35.002c8 0 16.833 2.00098 26.5 6.00098s19 9.16699 28 15.5s17.5 13.5 25.5 21.5s14.667 16.333 20 25l65 348c-8 5.33301 -16.333 9.16602 -25 11.499s-20.667 3.5 -36 3.5c-23.333 0 -44.666 -9.83301 -63.999 -29.5
s-36.333 -45.334 -51 -77.001s-26 -67.667 -34 -108s-12 -81.166 -12 -122.499c0 -32 5.16699 -55.667 15.5 -71s24.166 -23 41.499 -23z" />
    <glyph glyph-name="afii10087" unicode="&#x445;" horiz-adv-x="454" 
d="M201 213c-7.33301 -8 -15.835 -16.668 -25.502 -26.001s-19.167 -19 -28.5 -29s-18 -20 -26 -30s-14.333 -19.333 -19 -28c-1.33301 -4.66699 -2.16602 -11.334 -2.49902 -20.001s-0.666016 -17.834 -0.999023 -27.501s-0.5 -18.667 -0.5 -27s0.333008 -14.5 1 -18.5
c-11.333 -4.66699 -22.833 -8 -34.5 -10s-22.834 -3 -33.501 -3c-22 0 -40.333 4.33301 -55 13c6 20 18.333 42.333 37 67s39.334 48.667 62.001 72s44.667 44.5 66 63.5l48 42.5l-68 184l-64 8v25c4 2.66699 9.83301 6.16699 17.5 10.5s16.334 8.5 26.001 12.5
s19.5 7.33301 29.5 10s19.667 4 29 4c14.667 0 25.334 -3.83301 32.001 -11.5s12 -16.5 16 -26.5l49 -174l50.5 52c18.333 19.333 32.166 37.666 41.499 54.999c0.666992 4.66699 1 11.334 1 20.001s-0.333008 17.834 -1 27.501s-1.33398 18.667 -2.00098 27
s-1.33398 14.5 -2.00098 18.5c11.333 4 22.5 7.16699 33.5 9.5s22.167 3.5 33.5 3.5c21.333 0 40 -4.33301 56 -13c-4 -13.333 -10.667 -27.666 -20 -42.999s-20.333 -30.666 -33 -45.999s-26.167 -30.5 -40.5 -45.5l-41.5 -42c-13.333 -13 -25.833 -24.667 -37.5 -35
l-27.5 -24.5l72 -195l65 -8v-25c-4 -2.66699 -9.83301 -6 -17.5 -10s-16 -8 -25 -12s-18.667 -7.33301 -29 -10s-19.833 -4 -28.5 -4c-14 0 -24.667 3.66699 -32 11s-12.666 16.333 -15.999 27z" />
    <glyph glyph-name="afii10088" unicode="&#x446;" horiz-adv-x="543" 
d="M374 -6c-14.667 0 -25.6641 3.99902 -32.9971 11.999s-11 16.667 -11 26c0 12 1.66699 32.167 5 60.5s10.666 62.833 21.999 103.5h-4c-8.66699 -18.667 -19.5 -40 -32.5 -64s-28.5 -46.667 -46.5 -68s-38.5 -39.333 -61.5 -54s-48.5 -22 -76.5 -22
c-23.333 0 -43 8.16699 -59 24.5s-24 39.5 -24 69.5c0 14.667 2.33301 36.334 7 65.001s10.334 60 17.001 94l21.5 104.5l20.5 96.5l-61 9v25c10.667 4 22.167 8 34.5 12s24.666 7.66699 36.999 11s24.166 6.16602 35.499 8.49902s21.666 3.83301 30.999 4.5l22 -12
c-10.667 -50 -21.5 -97.5 -32.5 -142.5s-21.167 -92.5 -30.5 -142.5c-3.33301 -16 -6.83301 -33.833 -10.5 -53.5s-5.5 -41.167 -5.5 -64.5c0 -14 3.83301 -25.333 11.5 -34s16.5 -13 26.5 -13c14.667 0 29.334 4.33301 44.001 13s28.5 20 41.5 34s25.333 29.5 37 46.5
s22.167 33.833 31.5 50.5s17.166 32.167 23.499 46.5s11.166 25.833 14.499 34.5l44 225h83l-82 -445h74v-31c-8 -7.33301 -14.167 -15.666 -18.5 -24.999s-7.5 -19.5 -9.5 -30.5s-3.16699 -22.333 -3.5 -34s-0.833008 -23.167 -1.5 -34.5
c-0.666992 -18 -4.5 -32.833 -11.5 -44.5s-16 -21.334 -27 -29.001s-23.5 -13.5 -37.5 -17.5s-28 -7.33301 -42 -10l-7 20c12 3.33301 21.5 8.33301 28.5 15s12.333 13.834 16 21.501s5.83398 15.667 6.50098 24s1 15.833 1 22.5c-0.666992 23.333 5.5 43.833 18.5 61.5
s29.167 35.167 48.5 52.5l-3 3c-8 -6 -19 -11.667 -33 -17s-27 -8 -39 -8z" />
    <glyph glyph-name="afii10089" unicode="&#x447;" horiz-adv-x="493" 
d="M429 56l0.00292969 -25.9971c-13.333 -10.667 -29.333 -19.334 -48 -26.001s-37.334 -10 -56.001 -10c-19.333 0 -33.166 4.33301 -41.499 13s-12.5 18.667 -12.5 30c0 8 0.5 15.667 1.5 23s2.5 15.666 4.5 24.999l40 169h-4c-10.667 -14 -22.834 -27.167 -36.501 -39.5
s-28.167 -23.166 -43.5 -32.499s-31.333 -16.833 -48 -22.5s-33.334 -8.5 -50.001 -8.5c-22.667 0 -42 7.16699 -58 21.5s-24 35.833 -24 64.5c0 12 0.833008 24.167 2.5 36.5s4 26.333 7 42s6.83301 33.667 11.5 54l16 72.5l-61 9v25c10.667 4 22.167 8 34.5 12
s24.666 7.66699 36.999 11s24.166 6.16602 35.499 8.49902s21.666 3.83301 30.999 4.5l22 -12c-13.333 -56.667 -25 -104.167 -35 -142.5s-15 -70.5 -15 -96.5c0 -14 4 -25.5 12 -34.5s19.667 -13.5 35 -13.5c10.667 0 22.334 2.16699 35.001 6.5
s25.334 10.166 38.001 17.499s24.5 16 35.5 26s20.5 20.667 28.5 32l44 205h83l-94 -444h73z" />
    <glyph glyph-name="afii10090" unicode="&#x448;" horiz-adv-x="780" 
d="M315 80c0 27.333 7.33203 66.001 21.999 116.001h-4l-29.5 -64c-11 -24 -24.167 -46.667 -39.5 -68s-33.5 -39.333 -54.5 -54s-45.5 -22 -73.5 -22c-23.333 0 -43 8.16699 -59 24.5s-24 39.5 -24 69.5c0 14.667 2.33301 36.334 7 65.001s10.334 60 17.001 94l21.5 104.5
l20.5 96.5l-61 9v25c10.667 4 22.167 8 34.5 12s24.666 7.66699 36.999 11s24.166 6.16602 35.499 8.49902s21.666 3.83301 30.999 4.5l22 -12c-10.667 -50 -21.5 -97.5 -32.5 -142.5s-21.167 -92.5 -30.5 -142.5c-3.33301 -16 -6.83301 -33.833 -10.5 -53.5
s-5.5 -41.167 -5.5 -64.5c0 -14 3.83301 -25.333 11.5 -34s16.5 -13 26.5 -13c14.667 0 28.667 4.33301 42 13s25.833 20 37.5 34s22.334 29.5 32.001 46.5s18.334 33.833 26.001 50.5s14.167 32.167 19.5 46.5l13 34.5l46 225h83c-10.667 -50 -21.334 -97.5 -32.001 -142.5
s-20.667 -92.5 -30 -142.5l-11 -53.5c-4 -19.667 -6 -41.167 -6 -64.5c0 -14 3.66699 -25.333 11 -34s16.333 -13 27 -13c14.667 0 28.667 4.33301 42 13s25.833 20 37.5 34s22.5 29.5 32.5 46.5s18.833 33.833 26.5 50.5s14.334 32.167 20.001 46.5l13.5 34.5l44 225h82
l-81 -445h73v-25c-13.333 -10.667 -29.333 -19.334 -48 -26.001s-37 -10 -55 -10c-19.333 0 -33.166 4 -41.499 12s-12.5 16.667 -12.5 26c0 12 1.66699 32.167 5 60.5s10.666 62.833 21.999 103.5h-4l-30 -64c-11.333 -24 -25 -46.667 -41 -68s-34.333 -39.333 -55 -54
s-44.667 -22 -72 -22c-25.333 0 -44.666 8.16699 -57.999 24.5s-20 38.833 -20 67.5z" />
    <glyph glyph-name="afii10091" unicode="&#x449;" horiz-adv-x="781" 
d="M727 55v-31.001c-8 -7.33301 -14.167 -15.666 -18.5 -24.999s-7.5 -19.5 -9.5 -30.5s-3.33301 -22.333 -4 -34l-2 -34.5c-0.666992 -18 -4.5 -32.833 -11.5 -44.5s-16 -21.334 -27 -29.001s-23.333 -13.5 -37 -17.5s-27.5 -7.33301 -41.5 -10l-7 20
c12 3.33301 21.5 8.33301 28.5 15s12.167 13.834 15.5 21.501s5.33301 15.667 6 24s1 15.833 1 22.5c0 23.333 6.5 43.833 19.5 61.5s29.167 35.167 48.5 52.5l-3 3c-8.66699 -6 -20 -11.667 -34 -17s-27 -8 -39 -8c-14.667 0 -25.667 4 -33 12s-11 16.667 -11 26
c0 12 1.66699 32.167 5 60.5s10.666 62.833 21.999 103.5h-4l-30 -64c-11.333 -24 -25 -46.667 -41 -68s-34.333 -39.333 -55 -54s-44.667 -22 -72 -22c-25.333 0 -44.666 8.16699 -57.999 24.5s-20 38.833 -20 67.5c0 27.333 7.33301 66 22 116h-4l-29.5 -64
c-11 -24 -24.167 -46.667 -39.5 -68s-33.5 -39.333 -54.5 -54s-45.5 -22 -73.5 -22c-23.333 0 -43 8.16699 -59 24.5s-24 39.5 -24 69.5c0 14.667 2.33301 36.334 7 65.001s10.334 60 17.001 94l21.5 104.5l20.5 96.5l-61 9v25c10.667 4 22.167 8 34.5 12
s24.666 7.66699 36.999 11s24.166 6.16602 35.499 8.49902s21.666 3.83301 30.999 4.5l22 -12c-10.667 -50 -21.5 -97.5 -32.5 -142.5s-21.167 -92.5 -30.5 -142.5c-3.33301 -16 -6.83301 -33.833 -10.5 -53.5s-5.5 -41.167 -5.5 -64.5c0 -14 3.83301 -25.333 11.5 -34
s16.5 -13 26.5 -13c14.667 0 28.667 4.33301 42 13s25.833 20 37.5 34s22.334 29.5 32.001 46.5s18.334 33.833 26.001 50.5s14.167 32.167 19.5 46.5l13 34.5l46 225h83c-10.667 -50 -21.334 -97.5 -32.001 -142.5s-20.667 -92.5 -30 -142.5l-11 -53.5
c-4 -19.667 -6 -41.167 -6 -64.5c0 -14 3.66699 -25.333 11 -34s16.333 -13 27 -13c14.667 0 28.667 4.33301 42 13s25.833 20 37.5 34s22.5 29.5 32.5 46.5s18.833 33.833 26.5 50.5s14.334 32.167 20.001 46.5l13.5 34.5l44 225h82l-81 -445h75z" />
    <glyph glyph-name="afii10092" unicode="&#x44a;" horiz-adv-x="455" 
d="M180 247c24.667 22 49.335 39.168 74.002 51.501s53 18.5 85 18.5c10 0 20.5 -1.83301 31.5 -5.5s21 -9.33398 30 -17.001s16.5 -17.667 22.5 -30s9 -27.5 9 -45.5c0 -30 -6.83301 -58.833 -20.5 -86.5s-31.834 -52.334 -54.501 -74.001s-48.167 -38.834 -76.5 -51.501
s-57.5 -19 -87.5 -19c-15.333 0 -30.833 2.33301 -46.5 7s-29.667 12.334 -42 23.001s-22.333 24.834 -30 42.501s-11.5 39.167 -11.5 64.5c0 26 5 53 15 81s23.667 55.667 41 83s37.5 53.5 60.5 78.5s47.5 47.833 73.5 68.5c-21.333 -4.66699 -45.166 -6.5 -71.499 -5.5
s-54.166 3.83301 -83.499 8.5l-46 -72l-25 6l15 101c4 26 22 39 54 39c12 0 24.167 -1 36.5 -3l43 -7c16.333 -2.66699 35.166 -5.33398 56.499 -8.00098s46.666 -5 75.999 -7l21.5 12l20.5 12c7.33301 -1.33301 14.166 -6.66602 20.499 -15.999s8.5 -19.666 6.5 -30.999
c-43.333 -18.667 -81.833 -47.334 -115.5 -86.001s-62.167 -82.667 -85.5 -132h4zM164.001 205.001c-6 -18 -10.001 -33.335 -12.001 -46.002s-3 -25.667 -3 -39c0 -24.667 5.5 -45.667 16.5 -63s26.833 -26 47.5 -26c18.667 0 36 4.66699 52 14s30 21.666 42 36.999
s21.333 32.5 28 51.5s10.334 38.5 11.001 58.5c-0.666992 12 -3 22 -7 30s-9 14.5 -15 19.5s-12.5 8.5 -19.5 10.5s-13.5 3 -19.5 3c-12 0 -24 -1.16699 -36 -3.5s-23.5 -5.66602 -34.5 -9.99902s-20.833 -9.66602 -29.5 -15.999s-15.667 -13.166 -21 -20.499z" />
    <glyph glyph-name="afii10093" unicode="&#x44b;" horiz-adv-x="672" 
d="M157 205c-6 -18 -10.501 -34.833 -13.501 -50.5s-4.5 -32.167 -4.5 -49.5c0 -23.333 4 -41.5 12 -54.5s22 -19.5 42 -19.5c18.667 0 35.5 5.33301 50.5 16s27.833 24.167 38.5 40.5s18.834 34.666 24.501 54.999s8.83398 40.5 9.50098 60.5
c-0.666992 12 -3 21.833 -7 29.5s-9 14 -15 19s-12.5 8.5 -19.5 10.5s-13.5 3 -19.5 3c-23.333 0 -42.833 -6.16699 -58.5 -18.5s-28.834 -26.166 -39.501 -41.499zM165.999 247c18 22 38.333 40.834 61 56.501s50 23.5 82 23.5c10 0 20.5 -1.66699 31.5 -5
s21 -8.83301 30 -16.5s16.5 -17.667 22.5 -30s9 -27.5 9 -45.5c0 -30 -6.33301 -59.333 -19 -88s-30 -54.5 -52 -77.5s-47.667 -41.5 -77 -55.5s-60.333 -21 -93 -21c-14.667 0 -28.5 2.16699 -41.5 6.5s-24.5 11 -34.5 20s-17.833 20.5 -23.5 34.5s-8.5 30.333 -8.5 49
c0 21.333 2.83301 45.833 8.5 73.5s13 56.667 22 87s18.833 61.166 29.5 92.499l31 91l-60 9v25c10 4.66699 21.5 9 34.5 13s26.167 7.66699 39.5 11s26.5 6 39.5 8s24.5 3.33301 34.5 4l22 -12l-46.5 -122c-15 -39.333 -30.167 -83 -45.5 -131h4zM624.999 500.001
l-95 -443.999h73v-26c-13.333 -10.667 -29.5 -19.334 -48.5 -26.001s-37.167 -10 -54.5 -10c-19.333 0 -33.333 4.33301 -42 13s-13 18.667 -13 30c0 13.333 1 26.333 3 39s4.66699 26.667 8 42l84 382h85z" />
    <glyph glyph-name="afii10094" unicode="&#x44c;" horiz-adv-x="445" 
d="M157 205c-6 -18 -10.501 -34.833 -13.501 -50.5s-4.5 -32.167 -4.5 -49.5c0 -23.333 5.5 -41.5 16.5 -54.5s26.833 -19.5 47.5 -19.5c18.667 0 36 5.33301 52 16s30 24.167 42 40.5s21.333 34.666 28 54.999s10.334 40.5 11.001 60.5c-0.666992 12 -3 21.833 -7 29.5
s-9 14 -15 19s-12.667 8.5 -20 10.5s-14 3 -20 3c-23.333 0 -46 -6.16699 -68 -18.5s-38.333 -26.166 -49 -41.499zM165.999 247c18 22 41.667 40.834 71 56.501s60 23.5 92 23.5c10 0 20.5 -1.66699 31.5 -5s21 -8.83301 30 -16.5s16.5 -17.667 22.5 -30s9 -27.5 9 -45.5
c0 -30 -7 -59.5 -21 -88.5s-32.5 -54.833 -55.5 -77.5s-49.667 -41 -80 -55s-61.833 -21 -94.5 -21c-36 0 -64.667 8.83301 -86 26.5s-32 45.5 -32 83.5c0 21.333 2.83301 45.833 8.5 73.5s13 56.667 22 87s18.833 61.166 29.5 92.499l31 91l-60 9v25
c10 4.66699 21.5 9 34.5 13s26.167 7.66699 39.5 11s26.5 6 39.5 8s24.5 3.33301 34.5 4l22 -12l-46.5 -122c-15 -39.333 -30.167 -83 -45.5 -131h4z" />
    <glyph glyph-name="afii10095" unicode="&#x44d;" horiz-adv-x="465" 
d="M151 31c18.667 0 37.499 4.83203 56.499 14.499s36.5 23.5 52.5 41.5s30.167 40 42.5 66s21.5 55.333 27.5 88l-189 -24c-3.33301 8.66699 -5 19.334 -5 32.001s1.66699 23.334 5 32.001h193c0.666992 5.33301 1.16699 11.166 1.5 17.499s0.5 12.5 0.5 18.5
c0 46.667 -9.5 83.667 -28.5 111s-45.5 41 -79.5 41c-5.33301 0 -12.5 -0.5 -21.5 -1.5s-16.833 -2.16699 -23.5 -3.5c-9.33301 -10.667 -20 -24.667 -32 -42l-33 -46c-6 2.66699 -11.833 7.33398 -17.5 14.001s-10.5 14.334 -14.5 23.001s-6.66699 18 -8 28
s-0.666016 19.667 2.00098 29c12.667 8 33.167 17 61.5 27s65.5 15 111.5 15c52.667 0 95.334 -15.667 128.001 -47s49 -74.333 49 -129c0 -51.333 -7.16699 -98.333 -21.5 -141s-34 -79.334 -59 -110.001s-54.333 -54.5 -88 -71.5s-69.5 -25.5 -107.5 -25.5
c-37.333 0 -70.333 4.16699 -99 12.5s-51 20.166 -67 35.499c0.666992 8.66699 2.66699 17.5 6 26.5s7.66602 17.833 12.999 26.5s11.333 16.667 18 24s14 13.333 22 18l68 -95c5.33301 -1.33301 11.5 -2.5 18.5 -3.5s12.833 -1.5 17.5 -1.5z" />
    <glyph glyph-name="afii10096" unicode="&#x44e;" horiz-adv-x="716" 
d="M262 186c0 14.667 1.00293 30.001 3.00293 46.001h-90l-48 -232h-84l88 442l-61 9l-1 25c9.33301 4.66699 20.166 9.16699 32.499 13.5s25 8.16602 38 11.499s25.667 6 38 8s23.166 3 32.499 3l20 -12l-47 -225h90c6.66699 30 17 59.167 31 87.5s31.333 53.5 52 75.5
s44.667 39.833 72 53.5s57.666 20.5 90.999 20.5c52 0 91.167 -16 117.5 -48s39.5 -79.333 39.5 -142c0 -44 -6.5 -86.167 -19.5 -126.5s-31.167 -75.833 -54.5 -106.5s-51.166 -55.167 -83.499 -73.5s-67.833 -27.5 -106.5 -27.5c-46.667 0 -83.334 16.5 -110.001 49.5
s-40 82.5 -40 148.5zM499.003 469.001c-29.333 -0.666992 -53.6689 -11.333 -73.002 -32s-34.666 -46.334 -45.999 -77.001s-19.5 -63.667 -24.5 -99s-7.5 -67.666 -7.5 -96.999c0 -39.333 7.33301 -71.333 22 -96s34.334 -37 59.001 -37c23.333 0 44.5 8.83301 63.5 26.5
s35.333 41 49 70s24.167 61.833 31.5 98.5s11 73.667 11 111c0 39.333 -6.66699 71 -20 95s-35 36.333 -65 37z" />
    <glyph glyph-name="afii10097" unicode="&#x44f;" horiz-adv-x="502" 
d="M362 457c-8.66699 1.33301 -19.333 2.66602 -32 3.99902s-23 2 -31 2c-18 0 -34.833 -3.33301 -50.5 -10s-29.5 -15.834 -41.5 -27.501s-21.333 -25.667 -28 -42s-10 -34.166 -10 -53.499c0 -25.333 9.83301 -46.166 29.5 -62.499s50.5 -24.5 92.5 -24.5h25zM172.001 220
c-12 2.66699 -23.501 7.33691 -34.501 14.0039s-20.833 15 -29.5 25s-15.667 21.667 -21 35s-8 28.333 -8 45c0 24.667 6.16699 47.167 18.5 67.5s29.166 37.833 50.499 52.5s46.333 26.167 75 34.5s59.667 12.5 93 12.5c8.66699 0 19 -0.166992 31 -0.5s24 -1 36 -2
s23.833 -2.33301 35.5 -4s22.167 -3.83398 31.5 -6.50098l-87 -437h74v-26c-13.333 -10.667 -29.5 -19.334 -48.5 -26.001s-37.833 -10 -56.5 -10c-19.333 0 -33.166 4 -41.499 12s-12.5 16.667 -12.5 26c0 12 1.33301 25.5 4 40.5s5.66699 30.167 9 45.5l20 99l-69 -10
c-14 -24.667 -31.5 -52.5 -52.5 -83.5s-43.5 -59.167 -67.5 -84.5c-15.333 -16.667 -29.666 -28.334 -42.999 -35.001s-27 -10 -41 -10s-26.667 3.5 -38 10.5s-21 15.167 -29 24.5v26h47c11.333 8 24.333 19.167 39 33.5s29.167 29.333 43.5 45s27.833 31.167 40.5 46.5
s23 28.666 31 39.999z" />
    <glyph glyph-name="afii10071" unicode="&#x451;" horiz-adv-x="454" 
d="M392 89c-6 -12.667 -14.668 -25 -26.001 -37s-24.666 -22.833 -39.999 -32.5s-32.666 -17.334 -51.999 -23.001s-40 -8.5 -62 -8.5c-55.333 0 -97.833 15.833 -127.5 47.5s-44.5 75.5 -44.5 131.5c0 47.333 6.66699 92 20 134s32 78.667 56 110s53.167 56 87.5 74
s72.5 27 114.5 27c32 0 59.5 -8.16699 82.5 -24.5s34.5 -40.5 34.5 -72.5c0 -47.333 -23.5 -84.666 -70.5 -111.999s-122.833 -45 -227.5 -53c-2.66699 -11.333 -4.5 -22.333 -5.5 -33s-1.5 -21 -1.5 -31c0 -40 10.167 -72.667 30.5 -98s50.166 -38 89.499 -38
c12.667 0 25.167 2 37.5 6s24 9 35 15s21 12.333 30 19l23.5 18zM286.999 469c-28.667 -0.666992 -55.333 -14.167 -80 -40.5s-45.667 -71.5 -63 -135.5c64.667 2 115 13.167 151 33.5s54 48.5 54 84.5c0 14 -4.16699 27 -12.5 39s-24.833 18.333 -49.5 19zM166 662
c0 16 5 28.833 15 38.5s23.333 14.5 40 14.5c16 0 29 -4.83301 39 -14.5s15 -22.5 15 -38.5c0 -15.333 -5 -27.666 -15 -36.999s-23 -14 -39 -14c-16.667 0 -30 4.66699 -40 14s-15 21.666 -15 36.999zM368 662c0 16 5 28.833 15 38.5s23 14.5 39 14.5
c16.667 0 30 -4.83301 40 -14.5s15 -22.5 15 -38.5c0 -15.333 -5 -27.666 -15 -36.999s-23.333 -14 -40 -14c-16 0 -29 4.66699 -39 14s-15 21.666 -15 36.999z" />
    <glyph glyph-name="afii10099" unicode="&#x452;" 
d="M74 593l79 0.000976562l19 89l-68 9v23c10 4 21.167 8.16699 33.5 12.5s25 8.33301 38 12s26 6.66699 39 9s25.167 3.83301 36.5 4.5l21 -9l-33 -150h170l-12 -52h-168l-47 -218h5c26 53.333 56.167 93.166 90.5 119.499s69.833 39.5 106.5 39.5
c30.667 0 53.5 -8.33301 68.5 -25s22.5 -38.334 22.5 -65.001c0 -17.333 -0.666992 -32 -2 -44s-4 -27.333 -8 -46l-65 -302c-10 -36.667 -23.167 -67.667 -39.5 -93s-33.5 -46.333 -51.5 -63s-35.5 -29.5 -52.5 -38.5s-30.833 -14.833 -41.5 -17.5l-12 22
c8 4 17.5 11 28.5 21s21.833 22.833 32.5 38.5s20.667 34.334 30 56.001s17 46.5 23 74.5l61 285c4 20 6.83301 35.833 8.5 47.5s2.5 23.5 2.5 35.5c0 15.333 -4 27.833 -12 37.5s-17.667 14.5 -29 14.5c-18 0 -36.167 -5.83301 -54.5 -17.5s-35.333 -26 -51 -43
s-29.667 -35 -42 -54s-21.833 -35.833 -28.5 -50.5l-53 -255h-84l108 541h-82z" />
    <glyph glyph-name="afii10100" unicode="&#x453;" horiz-adv-x="390" 
d="M16 94c0 22.667 6.33105 43.333 18.998 62s28.5 36.167 47.5 52.5s39.5 31.666 61.5 45.999s42.5 28.5 61.5 42.5s34.833 28.333 47.5 43s19 30 19 46c0 17.333 -3.5 32.333 -10.5 45s-22.167 19 -45.5 19s-45.5 -6.16699 -66.5 -18.5s-37.833 -24.833 -50.5 -37.5
l-15 17c5.33301 10 13.333 20.833 24 32.5s23.5 22.667 38.5 33s31.333 18.833 49 25.5s36.167 10 55.5 10c38.667 0 67.5 -9.5 86.5 -28.5s28.5 -40.833 28.5 -65.5s-6.33301 -46.667 -19 -66s-28.5 -37.166 -47.5 -53.499s-39.5 -31.666 -61.5 -45.999
s-42.5 -28.666 -61.5 -42.999s-34.833 -29.333 -47.5 -45s-19 -32.5 -19 -50.5c0 -17.333 5.66699 -32.333 17 -45s31 -19 59 -19c24.667 0 47.834 5.5 69.501 16.5s40.834 23.167 57.501 36.5l14 -15c-8.66699 -12 -19.5 -24 -32.5 -36s-28 -22.833 -45 -32.5
s-35.5 -17.334 -55.5 -23.001s-41 -8.5 -63 -8.5c-15.333 0 -30 2.66699 -44 8s-26.333 12.666 -37 21.999s-19 20.5 -25 33.5s-9 27.167 -9 42.5zM376.998 766.999c5.33301 0.666992 12.333 0.5 21 -0.5s17.667 -2.5 27 -4.5s18 -4.5 26 -7.5s14 -6.16699 18 -9.5v-19
l-197 -151l-22 18z" />
    <glyph glyph-name="afii10101" unicode="&#x454;" horiz-adv-x="438" 
d="M393 89c-7.33301 -12.667 -16.666 -25.001 -27.999 -37.001s-24.833 -22.833 -40.5 -32.5s-33 -17.334 -52 -23.001s-39.833 -8.5 -62.5 -8.5c-24 0 -46.5 4 -67.5 12s-39 19.667 -54 35s-26.833 33.833 -35.5 55.5s-13 46.167 -13 73.5
c0 47.333 6.66699 90.833 20 130.5s31.666 74.334 54.999 104.001s50.666 53.834 81.999 72.501s65 31 101 37c15.333 2.66699 31.666 4 48.999 4c25.333 -0.666992 45.5 -2.83398 60.5 -6.50098s26.5 -9.16699 34.5 -16.5c0.666992 -7.33301 0.166992 -15.5 -1.5 -24.5
s-4.5 -17.833 -8.5 -26.5s-8.66699 -16.667 -14 -24s-11 -12.333 -17 -15l-68 70c-19.333 0 -38.833 -4.16699 -58.5 -12.5s-38.167 -20.5 -55.5 -36.5s-32.666 -36.167 -45.999 -60.5s-23.333 -53.166 -30 -86.499l186 14c1.33301 -8.66699 1.16602 -17.667 -0.500977 -27
s-5.16699 -18.333 -10.5 -27h-180c-0.666992 -8 -1.16699 -16 -1.5 -24s-0.5 -16.667 -0.5 -26c-0.666992 -46 10.333 -79.667 33 -101s50.334 -32 83.001 -32c14 0 27.167 2 39.5 6s23.833 9 34.5 15s20.334 12.333 29.001 19l23 18z" />
    <glyph glyph-name="afii10102" unicode="&#x455;" horiz-adv-x="418" 
d="M255 118c-0.666992 16 -5.16797 29.834 -13.501 41.501s-19 22.834 -32 33.501s-26.833 21.334 -41.5 32.001s-28.5 22.5 -41.5 35.5s-23.667 28 -32 45s-12.5 37.5 -12.5 61.5s4.66699 45 14 63s22.166 33 38.499 45s36 21.167 59 27.5s48.167 9.5 75.5 9.5
c17.333 0 36.833 -1.5 58.5 -4.5s42.167 -10.167 61.5 -21.5c0 -7.33301 -1.33301 -15.833 -4 -25.5s-6.16699 -19 -10.5 -28s-9.16602 -17.333 -14.499 -25s-11 -12.834 -17 -15.501l-74 77c-14 -0.666992 -27 -2.33398 -39 -5.00098s-22.5 -7 -31.5 -13
s-16 -13.833 -21 -23.5s-7.5 -21.834 -7.5 -36.501c0 -17.333 4.33301 -32.166 13 -44.499s19.5 -24 32.5 -35s27 -21.667 42 -32s29 -22 42 -35s23.833 -28 32.5 -45s13 -37.167 13 -60.5c0 -24 -5.5 -45.333 -16.5 -64s-26 -34.5 -45 -47.5s-41 -22.833 -66 -29.5
s-51.5 -10 -79.5 -10s-53.5 2.83301 -76.5 8.5s-41.167 12.834 -54.5 21.501c3.33301 17.333 7.33301 34.166 12 50.499s14.334 31.5 29.001 45.5l90 -83c14 0 27.833 1.66699 41.5 5s26 8.66602 37 15.999s20 16.333 27 27s10.833 23.667 11.5 39z" />
    <glyph glyph-name="afii10103" unicode="&#x456;" horiz-adv-x="277" 
d="M71 451l-0.000976562 25.0029c10 4 21.333 8.16699 34 12.5s25.667 8.16602 39 11.499s26 6.16602 38 8.49902s22.667 3.5 32 3.5l18 -12l-94 -444h74v-26c-14 -10.667 -30.333 -19.334 -49 -26.001s-37 -10 -55 -10c-19.333 0 -33.166 4.33301 -41.499 13
s-12.5 18.667 -12.5 30c0 13.333 1 26.333 3 39s4.66699 26.667 8 42l70 323zM150.999 673.003c0 17.333 5.33301 31 16 41s24.667 15 42 15c18.667 0 33.334 -5 44.001 -15s16 -23.667 16 -41c0 -16.667 -5.33301 -29.667 -16 -39s-25.334 -14 -44.001 -14
c-17.333 0 -31.333 4.66699 -42 14s-16 22.333 -16 39z" />
    <glyph glyph-name="afii10104" unicode="&#x457;" horiz-adv-x="309" 
d="M70 676c0 16 4.99902 28.833 14.999 38.5s22.667 14.5 38 14.5c16.667 0 29.834 -4.83301 39.501 -14.5s14.5 -22.5 14.5 -38.5c0 -15.333 -5 -27.666 -15 -36.999s-23 -14 -39 -14s-28.833 4.66699 -38.5 14s-14.5 21.666 -14.5 36.999zM231.999 676
c0 16 4.83301 28.833 14.5 38.5s22.5 14.5 38.5 14.5s29 -4.83301 39 -14.5s15 -22.5 15 -38.5c0 -15.333 -5 -27.666 -15 -36.999s-23 -14 -39 -14s-28.833 4.66699 -38.5 14s-14.5 21.666 -14.5 36.999zM79.999 451v25.0029c10 4 21.333 8.16699 34 12.5
s25.667 8.16602 39 11.499s26 6.16602 38 8.49902s22.667 3.5 32 3.5l18 -12l-93 -444h73v-26c-13.333 -10.667 -29.5 -19.334 -48.5 -26.001s-37.167 -10 -54.5 -10c-19.333 0 -33.333 4.33301 -42 13s-13 18.667 -13 30c0 13.333 1 26.333 3 39s4.66699 26.667 8 42
l71 323z" />
    <glyph glyph-name="afii10105" unicode="&#x458;" horiz-adv-x="275" 
d="M133 442l-59.999 8.99805v25c20.667 9.33301 43.667 17.666 69 24.999s48.333 11 69 11l20 -12l-97 -457c-10 -47.333 -23.833 -86.666 -41.5 -117.999s-36.167 -56.666 -55.5 -75.999s-37.833 -33.666 -55.5 -42.999s-31.834 -15.333 -42.501 -18l-12 22
c8 4 17.333 10.833 28 20.5s21.334 23 32.001 40s21.167 38.167 31.5 63.5s19.166 55.333 26.499 90zM146.001 672.998c0 17.333 5.33301 31 16 41s24.667 15 42 15c18.667 0 33.334 -5 44.001 -15s16 -23.667 16 -41c0 -16.667 -5.33301 -29.667 -16 -39
s-25.334 -14 -44.001 -14c-17.333 0 -31.333 4.66699 -42 14s-16 22.333 -16 39z" />
    <glyph glyph-name="afii10106" unicode="&#x459;" horiz-adv-x="701" 
d="M484 500c-12 -40.667 -23.3389 -80.999 -34.0059 -120.999s-21.334 -84 -32.001 -132h4c18 22 41.5 40.833 70.5 56.5s59.5 23.5 91.5 23.5c10 0 20.667 -1.66699 32 -5s21.5 -8.83301 30.5 -16.5s16.5 -17.667 22.5 -30s9 -27.5 9 -45.5c0 -30 -7 -59.5 -21 -88.5
s-32.5 -54.833 -55.5 -77.5s-49.667 -41 -80 -55s-61.833 -21 -94.5 -21c-36 0 -64.667 8.83301 -86 26.5s-32 45.5 -32 83.5c0 21.333 2.5 46.833 7.5 76.5s11.333 60.667 19 93s16 64.833 25 97.5l25.5 92h-124c-8 -36 -17.5 -73.833 -28.5 -113.5
s-23.333 -78.5 -37 -116.5s-28.667 -73.5 -45 -106.5s-34.166 -60.833 -53.499 -83.5c-16 -19.333 -33 -32.5 -51 -39.5s-37.667 -10.167 -59 -9.5c-5.33301 6.66699 -9.66602 15.5 -12.999 26.5s-4.66602 22.833 -3.99902 35.5c0 10.667 1.33301 21 4 31
s7.33398 19.333 14.001 28l82 -34c12.667 16 25.834 38 39.501 66s26.667 58.833 39 92.5s23.833 68.5 34.5 104.5s19.334 70 26.001 102c-14 3.33301 -28.667 8.16602 -44 14.499s-26.666 12.833 -33.999 19.5v26h352zM412.994 205.001
c-6 -18 -10.501 -34.833 -13.501 -50.5s-4.5 -32.167 -4.5 -49.5c0 -23.333 5.5 -41.5 16.5 -54.5s26.833 -19.5 47.5 -19.5c18.667 0 36 5.33301 52 16s30 24.167 42 40.5s21.333 34.666 28 54.999s10.334 40.5 11.001 60.5c-0.666992 12 -3 21.833 -7 29.5
s-9.16699 14 -15.5 19s-13 8.5 -20 10.5s-13.5 3 -19.5 3c-23.333 0 -46 -6.16699 -68 -18.5s-38.333 -26.166 -49 -41.499z" />
    <glyph glyph-name="afii10107" unicode="&#x45a;" horiz-adv-x="741" 
d="M511 500l-26.4971 -120.499c-9 -40.333 -17.5 -84.5 -25.5 -132.5h4c17.333 22 40.666 40.833 69.999 56.5s60 23.5 92 23.5c10 0 20.5 -1.66699 31.5 -5s21 -8.83301 30 -16.5s16.5 -17.667 22.5 -30s9 -27.5 9 -45.5c0 -30 -7 -59.5 -21 -88.5
s-32.5 -54.833 -55.5 -77.5s-49.667 -41 -80 -55s-61.833 -21 -94.5 -21c-36 0 -64.667 8.83301 -86 26.5s-32 45.5 -32 83.5c0 4 1 11.833 3 23.5l6.5 38c2.33301 13.667 4.83301 27.167 7.5 40.5s5 24 7 32h-198l-48 -232h-84l88 442l-61 9l-1 25
c9.33301 4.66699 20.166 9.16699 32.499 13.5s25 8.16602 38 11.499s25.667 6 38 8s23.166 3 32.499 3l20 -12l-47 -225h194l45 225h89zM453.003 205.001c-6 -18 -10.501 -34.833 -13.501 -50.5s-4.5 -32.167 -4.5 -49.5c0 -23.333 5.5 -41.5 16.5 -54.5
s26.833 -19.5 47.5 -19.5c18.667 0 36 5.33301 52 16s30 24.167 42 40.5s21.333 34.666 28 54.999s10.334 40.5 11.001 60.5c-0.666992 12 -3 21.833 -7 29.5s-9 14 -15 19s-12.5 8.5 -19.5 10.5s-13.5 3 -19.5 3c-12 0 -23.833 -1.66699 -35.5 -5
s-22.834 -7.83301 -33.501 -13.5s-20.167 -12.167 -28.5 -19.5s-15.166 -14.666 -20.499 -21.999z" />
    <glyph glyph-name="afii10108" unicode="&#x45b;" horiz-adv-x="543" 
d="M73 593l80.002 0.00195312l18 89l-68 9v23c10 4 21.167 8.16699 33.5 12.5s25.166 8.33301 38.499 12s26.333 6.66699 39 9s24.667 3.83301 36 4.5l21 -9l-32 -150h170l-13 -52h-168l-47 -218h5c26 53.333 56 93.166 90 119.499s71 39.5 111 39.5
c30.667 0 53 -8.83301 67 -26.5s21 -39.5 21 -65.5c0 -12 -0.666992 -25 -2 -39s-4.33301 -30.333 -9 -49l-57 -246h74v-26c-13.333 -10.667 -29.333 -19.334 -48 -26.001s-37.334 -10 -56.001 -10c-19.333 0 -32.666 4 -39.999 12s-11 16.667 -11 26
c0 12 1.66699 25.5 5 40.5l10 45.5l36 167c4.66699 20 7.83398 35.333 9.50098 46s2.5 22 2.5 34c0 15.333 -3.33301 28.333 -10 39s-16 16 -28 16c-20.667 0 -40.334 -5.83301 -59.001 -17.5s-35.834 -26 -51.501 -43s-29.5 -35 -41.5 -54s-21.333 -35.833 -28 -50.5
l-53 -255h-84l109 541h-82z" />
    <glyph glyph-name="afii10109" unicode="&#x45c;" horiz-adv-x="511" 
d="M310 47c-21.333 36 -39.666 69.8359 -54.999 101.503l-43 89.5l-36 10l-47 -248h-86l87 442l-70 9v25c19.333 8.66699 42.833 16.5 70.5 23.5s53.167 11.167 76.5 12.5l21 -11l-45 -227h29c14 8.66699 29 19.334 45 32.001s31.333 25.667 46 39s28 26.166 40 38.499
s21 22.833 27 31.5c0.666992 4.66699 1.16699 11 1.5 19s0.333008 16.167 0 24.5l-1 24c-0.333008 7.66699 -0.833008 13.5 -1.5 17.5c24.667 8.66699 48.667 13 72 13s43 -4.33301 59 -13c-9.33301 -20.667 -23.5 -41.834 -42.5 -63.501s-39.333 -42.334 -61 -62.001
s-42.834 -37.5 -63.501 -53.5l-49 -37c4.66699 -12.667 12.5 -29.167 23.5 -49.5l36 -63.5l39.5 -64l34 -52h63v-25c-13.333 -10.667 -27.833 -19.334 -43.5 -26.001s-32.167 -10 -49.5 -10c-16 0 -29.833 4 -41.5 12s-23.5 21.667 -35.5 41zM401 767.003
c5.33301 0.666992 12.333 0.5 21 -0.5s17.667 -2.5 27 -4.5s18 -4.5 26 -7.5s14 -6.16699 18 -9.5v-19l-197 -151l-22 18z" />
    <glyph glyph-name="afii10110" unicode="&#x45e;" horiz-adv-x="455" 
d="M88 442l-63.9971 8.00391v25c3.33301 2.66699 8.83301 6 16.5 10s16.5 8 26.5 12s20.333 7.5 31 10.5s20.667 4.5 30 4.5c14 0 24.167 -3.5 30.5 -10.5s11.166 -16.167 14.499 -27.5l83 -350l3 -60h2l23 59c8.66699 18.667 17.5 39.167 26.5 61.5l26.5 67.5
c8.66699 22.667 16.667 45 24 67s13.666 42.333 18.999 61c0 7.33301 -0.833008 17 -2.5 29s-3.5 24 -5.5 36s-4 23.167 -6 33.5s-3.66699 17.5 -5 21.5c9.33301 4 19.333 7 30 9s21 3 31 3c20 0 37.667 -4 53 -12c-20.667 -82.667 -48.834 -165.334 -84.501 -248.001
s-75.167 -166.667 -118.5 -252c-36 -70 -72 -122.333 -108 -157s-76.667 -52 -122 -52c-10 0 -19.5 1.33301 -28.5 4s-18.5 6.66699 -28.5 12c-0.666992 7.33301 0 15.666 2 24.999s5.16699 18.666 9.5 27.999s10 18 17 26s14.833 14.333 23.5 19l81 -42
c4.66699 3.33301 10.667 8.16602 18 14.499s15 15 23 26s16 24.333 24 40s15.667 34.5 23 56.5zM288.003 560.004c-30 0 -54.002 4.50098 -72.002 13.501s-31.667 19.833 -41 32.5s-15.166 26 -17.499 40s-2.83301 26.333 -1.5 37c10.667 8 22.334 14.333 35.001 19
s26 7.66699 40 9l25 -13v-77c4 -3.33301 9.16699 -6.33301 15.5 -9s14.833 -4 25.5 -4c29.333 0 55 9.16699 77 27.5s37.333 40.166 46 65.499c6 0 12.5 -1.5 19.5 -4.5s12.167 -6.83301 15.5 -11.5c-4 -14 -10.5 -28.333 -19.5 -43s-20.5 -28 -34.5 -40
s-30.333 -22 -49 -30s-40 -12 -64 -12z" />
    <glyph glyph-name="afii10193" unicode="&#x45f;" horiz-adv-x="542" 
d="M488 56l0.00292969 -25.999c-13.333 -10.667 -29.5 -19.334 -48.5 -26.001s-37.5 -10 -55.5 -10c-19.333 0 -33.166 4 -41.499 12s-12.5 16.667 -12.5 26c0 12 1.66699 32.167 5 60.5s10.666 62.833 21.999 103.5h-4c-8.66699 -18.667 -19.5 -40 -32.5 -64
s-28.5 -46.667 -46.5 -68s-38.5 -39.333 -61.5 -54s-48.5 -22 -76.5 -22c-23.333 0 -43 8.16699 -59 24.5s-24 39.5 -24 69.5c0 14.667 2.33301 36.334 7 65.001s10.334 60 17.001 94l21.5 104.5l20.5 96.5l-61 9v25c10.667 4 22.167 8 34.5 12s24.666 7.66699 36.999 11
s24.166 6.16602 35.499 8.49902s21.666 3.83301 30.999 4.5l22 -12c-10.667 -50 -21.5 -97.5 -32.5 -142.5s-21.167 -92.5 -30.5 -142.5c-3.33301 -16 -6.83301 -33.833 -10.5 -53.5s-5.5 -41.167 -5.5 -64.5c0 -14 3.83301 -25.333 11.5 -34s16.5 -13 26.5 -13
c14.667 0 29.334 4.33301 44.001 13s28.5 20 41.5 34s25.333 29.5 37 46.5s22.167 33.833 31.5 50.5s17.166 32.167 23.499 46.5s11.166 25.833 14.499 34.5l44 225h83l-82 -444h74zM293.003 -5.99902c-10.667 -8 -17.1689 -17.1689 -19.502 -27.502
s-2.66602 -21.166 -0.999023 -32.499s4 -23 7 -35s4.83301 -23.667 5.5 -35c-0.666992 -27.333 -10 -48 -28 -62s-40.667 -23.667 -68 -29l-7 18c12 6 19.667 13.333 23 22s4.5 18.167 3.5 28.5s-2.83301 21.5 -5.5 33.5s-4 24 -4 36
c-0.666992 23.333 4.83301 42.333 16.5 57s32.834 28.334 63.501 41.001z" />
    <glyph glyph-name="afii10146" unicode="&#x462;" horiz-adv-x="714" 
d="M412 564l-34.002 -158.002c12.667 2 27.667 3.66699 45 5s32.666 2 45.999 2c32.667 0 62.5 -3 89.5 -9s50.167 -15.5 69.5 -28.5s34.166 -30 44.499 -51s15.5 -46.5 15.5 -76.5c0 -40 -7.83301 -75.667 -23.5 -107s-37.5 -57.666 -65.5 -78.999
s-61.833 -37.5 -101.5 -48.5s-83.5 -16.5 -131.5 -16.5c-3.33301 0 -9.66602 0.166992 -18.999 0.5s-20.166 0.666016 -32.499 0.999023l-38 1c-13 0.333008 -24.5 0.5 -34.5 0.5h-128l5 29c28.667 12 58 20 88 24l109 511h-129l-82 -141h-26c0.666992 13.333 2 28.5 4 45.5
s4.33301 34.167 7 51.5s5.5 34.333 8.5 51s6.16699 31.667 9.5 45h218l11 52c-13.333 2.66699 -26.5 6 -39.5 10s-25.167 9 -36.5 15l6 28h266l-6 -28c-28.667 -11.333 -60 -19.666 -94 -24.999l-11 -52h255c-5.33301 -26 -12.166 -54.167 -20.499 -84.5
s-17.166 -59.166 -26.499 -86.499h-26l-26 119h-166zM436.998 360.998c-16 0 -29.332 -0.5 -39.999 -1.5s-20.667 -2.5 -30 -4.5l-64 -301c2.66699 -1.33301 7.16699 -2.16602 13.5 -2.49902s13 -0.833008 20 -1.5s13.833 -1 20.5 -1h16c23.333 0 47.333 3 72 9
s47.167 16.667 67.5 32s37 36.166 50 62.499s19.167 59.5 18.5 99.5c0.666992 16 -1.5 30.667 -6.5 44s-13.167 24.833 -24.5 34.5s-26.333 17.167 -45 22.5s-41.334 8 -68.001 8z" />
    <glyph glyph-name="afii10194" unicode="&#x463;" horiz-adv-x="681" 
d="M402 247c18 22 41.6689 40.833 71.002 56.5s60 23.5 92 23.5c10 0 20.5 -1.66699 31.5 -5s21 -8.83301 30 -16.5s16.5 -17.667 22.5 -30s9 -27.5 9 -45.5c0 -30 -7 -59.5 -21 -88.5s-32.5 -54.833 -55.5 -77.5s-49.667 -41 -80 -55s-61.833 -21 -94.5 -21
c-36 0 -64.667 8.5 -86 25.5s-32 41.5 -32 73.5c0 20 3.83301 45.667 11.5 77s16.334 62.833 26.001 94.5l26 88c7.66699 27 11.5 46.167 11.5 57.5c0 16 -2.66699 27.667 -8 35s-14.666 11 -27.999 11c-11.333 0 -23.833 -6.33301 -37.5 -19s-27.334 -28.667 -41.001 -48
s-26.334 -40.333 -38.001 -63s-21.5 -44.334 -29.5 -65.001l-53 -255h-86l93 442l-61 9v25c22 11.333 45.833 20.166 71.5 26.499s47.834 9.5 66.501 9.5l21 -12l-44 -177h4c8 18.667 18.167 39 30.5 61s26.666 42.5 42.999 61.5s34.166 34.833 53.499 47.5
s39.666 19 60.999 19c8 0 16 -1.33301 24 -4s15 -7.16699 21 -13.5s11 -14.666 15 -24.999s6 -23.166 6 -38.499c0 -10.667 -1.83301 -23.5 -5.5 -38.5s-8 -30.833 -13 -47.5s-10.5 -33.5 -16.5 -50.5s-11 -32.833 -15 -47.5h4zM393.002 205
c-6 -18 -11.334 -35.333 -16.001 -52s-7 -37 -7 -61c0 -16.667 6.33301 -31 19 -43s29.334 -18 50.001 -18c18 0 35 5.33301 51 16s30 24.167 42 40.5s21.5 34.666 28.5 54.999s10.833 40.5 11.5 60.5c-0.666992 12 -3 21.833 -7 29.5s-9 14 -15 19s-12.667 8.5 -20 10.5
s-14 3 -20 3c-23.333 0 -46 -6.16699 -68 -18.5s-38.333 -26.166 -49 -41.499z" />
    <glyph glyph-name="afii10147" unicode="&#x472;" horiz-adv-x="730" 
d="M66 278c0 60.667 9.16699 117.333 27.5 170s44.833 98.5 79.5 137.5s76.334 69.833 125.001 92.5s103.667 34 165 34c48.667 0 89.667 -8 123 -24s60.166 -37 80.499 -63s35 -55.833 44 -89.5s13.5 -68.5 13.5 -104.5c0 -53.333 -7.5 -106.5 -22.5 -159.5
s-38.167 -100.5 -69.5 -142.5s-70.833 -76 -118.5 -102s-104.167 -39 -169.5 -39c-48 0 -89.5 7.83301 -124.5 23.5s-63.833 36.667 -86.5 63s-39.5 57 -50.5 92s-16.5 72.167 -16.5 111.5zM173 276.999c0 -36.667 4.83301 -69.665 14.5 -98.998s23 -54.333 40 -75
s37 -36.5 60 -47.5s48.167 -16.167 75.5 -15.5c39.333 -0.666992 73.5 7.33301 102.5 24s53.333 38.5 73 65.5s35.167 58 46.5 93s19.333 71.167 24 108.5c-22 -20 -45.333 -33.667 -70 -41s-44.667 -11 -60 -11c-18 0 -34.667 3.66699 -50 11s-30.5 15.166 -45.5 23.499
s-30 16.166 -45 23.499s-31.167 11 -48.5 11c-14 0 -32 -2.16699 -54 -6.5s-42.667 -14.5 -62 -30.5c-0.666992 -5.33301 -1 -11 -1 -17v-17zM520 352.001c10.667 0 25.1641 0.832031 43.4971 2.49902s35.166 6.16699 50.499 13.5c2 22 3 43.333 3 64
c0 34 -3.83301 65 -11.5 93s-19.167 52 -34.5 72s-34.166 35.5 -56.499 46.5s-48.166 16.5 -77.499 16.5c-40 0 -75.167 -9.16699 -105.5 -27.5s-56.166 -42.333 -77.499 -72s-38.166 -63.167 -50.499 -100.5s-20.833 -75 -25.5 -113c20 17.333 40.333 31.333 61 42
s38.667 18.667 54 24c8 2.66699 15.667 4.5 23 5.5s14 1.5 20 1.5c18 0 34.333 -3.66699 49 -11s29.167 -15.166 43.5 -23.499s28.833 -16 43.5 -23s30.667 -10.5 48 -10.5z" />
    <glyph glyph-name="afii10195" unicode="&#x473;" horiz-adv-x="509" 
d="M41 186c0 35.333 5.5 72.167 16.5 110.5s27.833 73.5 50.5 105.5s51 58.333 85 79s73.667 31 119 31c52 0 91.167 -16 117.5 -48s39.5 -79.333 39.5 -142c0 -44 -6.33301 -86.167 -19 -126.5s-30.334 -75.833 -53.001 -106.5s-50 -55.167 -82 -73.5
s-67.333 -27.5 -106 -27.5c-51.333 0 -92.166 16.5 -122.499 49.5s-45.5 82.5 -45.5 148.5zM292 469.001c-24 -0.666992 -44.668 -6.6709 -62.001 -18.0039s-32 -26.166 -44 -44.499s-21.667 -39.166 -29 -62.499s-13 -47.333 -17 -72
c18.667 11.333 35.5 19.166 50.5 23.499s27.833 6.5 38.5 6.5s20.167 -1.66699 28.5 -5s16.333 -7.16602 24 -11.499s15.334 -8.16602 23.001 -11.499s16.167 -5 25.5 -5c5.33301 0 12 0.833008 20 2.5s16 4.83398 24 9.50098c2 18 3 36.667 3 56
c0 39.333 -6.83301 71 -20.5 95s-35.167 36.333 -64.5 37zM179.999 247.997c-12.667 0 -27.998 -5.00098 -45.998 -15.001c-2 -24 -3 -47 -3 -69c0 -39.333 8.66699 -71.333 26 -96s40.666 -37 69.999 -37c18.667 0 35.667 5.66699 51 17s29 26.666 41 45.999
s22.167 41.833 30.5 67.5s14.833 52.834 19.5 81.501c-17.333 -11.333 -33 -19.166 -47 -23.499s-27 -6.5 -39 -6.5c-10.667 0 -20.334 1.83301 -29.001 5.5s-17 7.66699 -25 12s-16 8.33301 -24 12s-16.333 5.5 -25 5.5z" />
    <glyph glyph-name="afii10148" unicode="&#x474;" horiz-adv-x="688" 
d="M765 712c5.33301 -2 10.002 -6.50293 14.002 -13.5029s7.5 -15 10.5 -24s5.33301 -18.5 7 -28.5s2.5 -19.667 2.5 -29c0 -4 -0.166992 -8.16699 -0.5 -12.5s-0.833008 -8.16602 -1.5 -11.499l-21 -24l-90 27c-27.333 -30.667 -57.833 -69.167 -91.5 -115.5
s-67.334 -96.666 -101.001 -150.999s-65.834 -111 -96.501 -170s-57 -116.167 -79 -171.5h-39l-113 658l-36 10.5c-12 3.66699 -23.667 8.5 -35 14.5l6 29h266l-6 -29c-13.333 -5.33301 -27.333 -10 -42 -14s-30 -7.66699 -46 -11l64 -430l5 -80h2l29 80
c22.667 47.333 47.834 94.5 75.501 141.5s55.5 91 83.5 132s49.167 70.167 63.5 87.5s22.166 27 23.499 29c24.667 30 46.667 53.667 66 71c14.667 12.667 28.5 21.334 41.5 26.001s25.833 7.66699 38.5 9z" />
    <glyph glyph-name="afii10196" unicode="&#x475;" horiz-adv-x="482" 
d="M443 409c-24 -30 -46.832 -63.167 -68.499 -99.5s-42.167 -73 -61.5 -110s-37.166 -73 -53.499 -108l-43.5 -91.5l-63 -12l-74 454l-64 8v25c4 2.66699 10 6.16699 18 10.5s16.833 8.5 26.5 12.5s19.667 7.33301 30 10s20.166 4 29.499 4
c14.667 0 25.167 -3.66699 31.5 -11s10.5 -16.333 12.5 -27l46 -325l5 -63h2l29 69l37 80c12.667 27.333 26.167 54.333 40.5 81s29.666 52.167 45.999 76.5s33.833 47.166 52.5 68.499c14.667 16.667 31 28.834 49 36.501s33.667 11.834 47 12.501
c5.33301 0 9 -0.333008 11 -1c8 -7.33301 14.167 -18.5 18.5 -33.5s6.5 -30.167 6.5 -45.5v-8c0 -2.66699 -0.333008 -5.33398 -1 -8.00098l-19 -26l-90 21v0z" />
    <glyph glyph-name="uni048A" unicode="&#x48a;" horiz-adv-x="748" 
d="M233 0h-252.998l5 29c29.333 12 58.666 20 87.999 24l125 593l-39 10.5c-13.333 3.66699 -26 8.5 -38 14.5l7 29h253l-6 -29c-11.333 -5.33301 -23.833 -10 -37.5 -14s-28.167 -7.66699 -43.5 -11l-92 -434l-26 -75l61 81l382 404l5 24
c-14.667 3.33301 -28.334 7 -41.001 11s-24 8.66699 -34 14l6 29h253l-6 -29c-13.333 -5.33301 -27.333 -10 -42 -14s-29.667 -7.66699 -45 -11l-126 -594h108l9 -7c-2.66699 -13.333 -9.33398 -29.333 -20.001 -48s-23.5 -37.667 -38.5 -57s-31.5 -37.333 -49.5 -54
s-35.333 -29 -52 -37h-27l79 151h-191l5 29c11.333 4.66699 24 9.16699 38 13.5s28.667 7.83301 44 10.5l92 433l26 75l-56 -76l-389 -410l-4 -22c14.667 -2.66699 28.334 -6 41.001 -10s24 -8.66699 34 -14zM469.002 731c-27.333 0 -50.333 3.83398 -69 11.501
s-33.5 17.334 -44.5 29.001s-18.5 24 -22.5 37s-5.33301 24.5 -4 34.5c10.667 8.66699 25.5 15.167 44.5 19.5s35.5 7.16602 49.5 8.49902l25 -13v-66c4.66699 -3.33301 10 -6.33301 16 -9s14.333 -4 25 -4c14.667 0 29.667 2 45 6s29.5 9.5 42.5 16.5s24.5 15.5 34.5 25.5
s17 21.333 21 34c6.66699 0 13.5 -1.33301 20.5 -4s12.167 -6.33398 15.5 -11.001c-4.66699 -14 -12.667 -27.833 -24 -41.5s-25.5 -26 -42.5 -37s-36.667 -19.833 -59 -26.5s-46.833 -10 -73.5 -10z" />
    <glyph glyph-name="uni048B" unicode="&#x48b;" horiz-adv-x="543" 
d="M374 -6c-14.667 0 -25.6641 3.99902 -32.9971 11.999s-11 16.667 -11 26c0 12 1.66699 32.167 5 60.5s10.666 62.833 21.999 103.5h-4c-8.66699 -18.667 -19.5 -40 -32.5 -64s-28.5 -46.667 -46.5 -68s-38.5 -39.333 -61.5 -54s-48.5 -22 -76.5 -22
c-23.333 0 -43 8.16699 -59 24.5s-24 39.5 -24 69.5c0 14.667 2.33301 36.334 7 65.001s10.334 60 17.001 94l21.5 104.5l20.5 96.5l-61 9v25c10.667 4 22.167 8 34.5 12s24.666 7.66699 36.999 11s24.166 6.16602 35.499 8.49902s21.666 3.83301 30.999 4.5l22 -12
c-10.667 -50 -21.5 -97.5 -32.5 -142.5s-21.167 -92.5 -30.5 -142.5c-3.33301 -16 -6.83301 -33.833 -10.5 -53.5s-5.5 -41.167 -5.5 -64.5c0 -14 3.83301 -25.333 11.5 -34s16.5 -13 26.5 -13c14.667 0 29.334 4.33301 44.001 13s28.5 20 41.5 34s25.333 29.5 37 46.5
s22.167 33.833 31.5 50.5s17.166 32.167 23.499 46.5s11.166 25.833 14.499 34.5l44 225h83l-82 -445h74v-31c-8 -7.33301 -14.167 -15.666 -18.5 -24.999s-7.5 -19.5 -9.5 -30.5s-3.16699 -22.333 -3.5 -34s-0.833008 -23.167 -1.5 -34.5
c-0.666992 -18 -4.5 -32.833 -11.5 -44.5s-16 -21.334 -27 -29.001s-23.5 -13.5 -37.5 -17.5s-28 -7.33301 -42 -10l-7 20c12 3.33301 21.5 8.33301 28.5 15s12.333 13.834 16 21.501s5.83398 15.667 6.50098 24s1 15.833 1 22.5c-0.666992 23.333 5.5 43.833 18.5 61.5
s29.167 35.167 48.5 52.5l-3 3c-8 -6 -19 -11.667 -33 -17s-27 -8 -39 -8zM340.003 559.999c-30 0 -54.002 4.50098 -72.002 13.501s-31.667 19.833 -41 32.5s-15.166 26 -17.499 40s-2.83301 26.333 -1.5 37c10.667 8 22.334 14.333 35.001 19s26 7.66699 40 9l25 -13v-77
c4 -3.33301 9.16699 -6.33301 15.5 -9s14.833 -4 25.5 -4c29.333 0 55 9.16699 77 27.5s37.333 40.166 46 65.499c6 0 12.5 -1.5 19.5 -4.5s12.167 -6.83301 15.5 -11.5c-4 -14 -10.5 -28.333 -19.5 -43s-20.5 -28 -34.5 -40s-30.333 -22 -49 -30s-40 -12 -64 -12z" />
    <glyph glyph-name="uni048C" unicode="&#x48c;" horiz-adv-x="617" 
d="M90 568l128.997 0.00195312l16 78c-13.333 2.66699 -26.333 6.16699 -39 10.5s-25.334 9.16602 -38.001 14.499l7 29h266l-6 -29c-13.333 -5.33301 -28 -10.333 -44 -15s-32.667 -8 -50 -10l-16 -78h194l-10 -52h-196l-20 -99c12.667 2.66699 27.834 4.5 45.501 5.5
s33.167 1.5 46.5 1.5c66.667 0 119.334 -13.667 158.001 -41s58 -66.333 58 -117c0 -48 -8.5 -89 -25.5 -123s-40 -61.833 -69 -83.5s-63 -37.5 -102 -47.5s-80.833 -15 -125.5 -15c-3.33301 0 -9.66602 0.166992 -18.999 0.5s-20.166 0.666016 -32.499 0.999023l-38 1
c-13 0.333008 -24.5 0.5 -34.5 0.5h-128l5 29c28.667 12 58 20 88 24l97 463h-127zM343.997 372.002c-16 0 -29.668 -0.501953 -41.001 -1.50195s-21.666 -2.5 -30.999 -4.5l-66 -312c2.66699 -1.33301 7.16699 -2.16602 13.5 -2.49902s13 -0.833008 20 -1.5
s13.833 -1 20.5 -1h15c30.667 -0.666992 58.834 3.33301 84.501 12s47.834 22 66.501 40s33.167 40.833 43.5 68.5s15.166 60.5 14.499 98.5c0.666992 14 -1.33301 27.333 -6 40s-12.334 23.834 -23.001 33.501s-25.167 17.167 -43.5 22.5s-40.833 8 -67.5 8z" />
    <glyph glyph-name="uni048D" unicode="&#x48d;" horiz-adv-x="445" 
d="M48 501l84 -0.000976562l26.5 111c8.33301 34 14.5 60.667 18.5 80l-61 9v25c10 4.66699 21.333 9 34 13s25.5 7.66699 38.5 11s25.667 6 38 8s23.5 3.33301 33.5 4l20 -12c-3.33301 -10.667 -7.33301 -24.667 -12 -42s-9.66699 -37 -15 -59l-17 -71l-18 -77h166l-12 -52
h-166l-25.5 -118l-17.5 -84h4c18 22 41.5 40.833 70.5 56.5s59.5 23.5 91.5 23.5c10 0 20.5 -1.66699 31.5 -5s21 -8.83301 30 -16.5s16.5 -17.667 22.5 -30s9 -27.5 9 -45.5c0 -30 -7 -59.5 -21 -88.5s-32.5 -54.833 -55.5 -77.5s-49.667 -41 -80 -55
s-61.833 -21 -94.5 -21c-36 0 -64.667 8.83301 -86 26.5s-32 45.5 -32 83.5c0 12.667 2 31.334 6 56.001s9.16699 53 15.5 85s13.5 66.167 21.5 102.5l24 107.5h-85zM157 204.999c-6 -18 -10.501 -34.833 -13.501 -50.5s-4.5 -32.167 -4.5 -49.5
c0 -23.333 5.5 -41.5 16.5 -54.5s26.833 -19.5 47.5 -19.5c18.667 0 36 5.33301 52 16s30 24.167 42 40.5s21.333 34.666 28 54.999s10.334 40.5 11.001 60.5c-0.666992 12 -3 21.833 -7 29.5s-9 14 -15 19s-12.5 8.5 -19.5 10.5s-13.5 3 -19.5 3
c-12 0 -23.833 -1.66699 -35.5 -5s-22.834 -7.83301 -33.501 -13.5s-20.167 -12.167 -28.5 -19.5s-15.166 -14.666 -20.499 -21.999z" />
    <glyph glyph-name="uni048E" unicode="&#x48e;" horiz-adv-x="585" 
d="M169 53c17.333 -2 33.498 -5.16797 48.498 -9.50098s28.833 -9.16602 41.5 -14.499l-5 -29h-274l5 29c15.333 6.66699 30.166 11.667 44.499 15s28.833 6.33301 43.5 9l125 593c-14.667 2.66699 -28.334 6.16699 -41.001 10.5s-24.667 9.16602 -36 14.499l7 29h90
c26.667 0 55.834 1.33301 87.501 4s61.834 4 90.501 4c32 0 61.5 -3.16699 88.5 -9.5s50 -16.333 69 -30s33.833 -30.667 44.5 -51s16 -44.5 16 -72.5c0 -58.667 -15.5 -110.167 -46.5 -154.5s-74.5 -76.833 -130.5 -97.5l34 -81l-56 -23l-37 88
c-11.333 -2.66699 -23.166 -4.5 -35.499 -5.5s-25.166 -1.5 -38.499 -1.5h-16c-7.33301 0 -15.5 0.166992 -24.5 0.5s-17.833 0.833008 -26.5 1.5s-16 1.33398 -22 2.00098zM369.998 655.999c-16 0 -30.167 -0.500977 -42.5 -1.50098s-23.166 -2.16699 -32.499 -3.5
l-68 -324c3.33301 -0.666992 8.16602 -1.33398 14.499 -2.00098s13 -1.16699 20 -1.5s13.667 -0.666016 20 -0.999023s11.5 -0.5 15.5 -0.5c22 0 42.667 2 62 6l-52 129l51 21l53 -130c32 17.333 56 42.833 72 76.5s24 73.5 24 119.5c0 16.667 -1.83301 31.834 -5.5 45.501
s-10.667 25.5 -21 35.5s-24.333 17.667 -42 23s-40.5 8 -68.5 8z" />
    <glyph glyph-name="uni048F" unicode="&#x48f;" horiz-adv-x="542" 
d="M97 -146c23.333 -4 46.6689 -12.335 70.002 -25.002v-29h-157l-9 9l43 199l93 434l-61 9v25c22 9.33301 45.167 17.666 69.5 24.999s47.166 11 68.499 11l20 -12l-41 -176h4c12 26.667 25.167 51.334 39.5 74.001s29.833 42.5 46.5 59.5s34.667 30.333 54 40
s40 14.5 62 14.5c14.667 0 28.667 -2.83301 42 -8.5s25 -14.334 35 -26.001s17.833 -26.167 23.5 -43.5s8.5 -37.333 8.5 -60c0 -33.333 -3.33301 -65.666 -10 -96.999s-16 -61 -28 -89s-26.333 -53.833 -43 -77.5s-35.334 -44.167 -56.001 -61.5l66 -93l-43 -29l-66 93
c-34.667 -21.333 -72 -32 -112 -32c-11.333 0 -21 0.333008 -29 1s-15 1.83398 -21 3.50098s-11.833 3.83398 -17.5 6.50098l-18.5 9zM352.003 449.998c-19.333 0 -37.666 -7.50195 -54.999 -22.502s-33.5 -33.167 -48.5 -54.5s-28.5 -43.833 -40.5 -67.5
s-21.667 -44.5 -29 -62.5l-39 -189c9.33301 -8 19.166 -13.833 29.499 -17.5s26.833 -5.5 49.5 -5.5c26.667 0 53 11 79 33l-65 93l40 30l60 -86c12 16 23 33.833 33 53.5s18.5 40.334 25.5 62.001s12.5 43.834 16.5 66.501s6 45 6 67c0 32 -5.5 56.667 -16.5 74
s-26.167 26 -45.5 26z" />
    <glyph glyph-name="afii10050" unicode="&#x490;" horiz-adv-x="497" 
d="M169 53c15.333 -1.33301 30.667 -4.16699 46 -8.5s30 -9.5 44 -15.5l-5 -29h-274l5 29c15.333 7.33301 30.166 12.833 44.499 16.5s28.833 6.16699 43.5 7.5l125 593l-40 10c-13.333 3.33301 -25.666 8.33301 -36.999 15l7 29h380l82 136h26
c-1.33301 -14 -3 -29.167 -5 -45.5s-4.5 -33 -7.5 -50l-9 -49.5c-3 -16 -6.16699 -30.333 -9.5 -43h-290z" />
    <glyph glyph-name="afii10098" unicode="&#x491;" horiz-adv-x="413" 
d="M366 500l70 121h26c-2 -28 -5.33301 -57.5 -10 -88.5s-10 -58.5 -16 -82.5h-204l-98 -450h-90l96 451c-22.667 4 -42.667 11.667 -60 23v26h286z" />
    <glyph glyph-name="uni0492" unicode="&#x492;" horiz-adv-x="507" 
d="M228 382l151.001 0.000976562l-11 -52h-150l-59 -277c15.333 -2.66699 30.833 -6 46.5 -10s30.167 -8.66699 43.5 -14l-5 -29h-274l5 29c30 11.333 59.333 19.333 88 24l59 277h-89l11 52h88l57 264c-13.333 2.66699 -26.333 6.16699 -39 10.5
s-25.334 9.16602 -38.001 14.499l6 29h468c-2.66699 -13.333 -6 -28.666 -10 -45.999s-8.5 -35.333 -13.5 -54s-10.167 -36.834 -15.5 -54.501s-10.333 -33.5 -15 -47.5h-25l-20 150h-202z" />
    <glyph glyph-name="uni0493" unicode="&#x493;" horiz-adv-x="469" 
d="M36 253h81.998l40 189c-11.333 2 -23.166 6.33301 -35.499 13s-21.166 13 -26.499 19v26h374c-6 -26 -12.833 -52.5 -20.5 -79.5s-16.167 -54.167 -25.5 -81.5h-26l-19 118h-136l-43 -204h143l-13 -52h-140l-43 -201h-83l42 201h-83z" />
    <glyph glyph-name="uni0494" unicode="&#x494;" horiz-adv-x="610" 
d="M235 368c20 10 44.334 20.0029 73.001 30.0029s62 15 100 15c30.667 0 56.334 -3.5 77.001 -10.5s37.5 -17 50.5 -30s22.333 -28.667 28 -47s8.5 -38.5 8.5 -60.5c0 -48 -6.83301 -93.833 -20.5 -137.5s-33.334 -82.334 -59.001 -116.001s-56.667 -61.334 -93 -83.001
s-77.5 -34.5 -123.5 -38.5v27c34 12 63.5 29.167 88.5 51.5s45.833 48 62.5 77s29 60.833 37 95.5s12 71 12 109c0 36 -6.83301 63.5 -20.5 82.5s-40.167 28.5 -79.5 28.5c-28 0 -54.833 -4 -80.5 -12s-49.167 -17.667 -70.5 -29l-56 -267c15.333 -2.66699 30.5 -6 45.5 -10
s29.167 -8.66699 42.5 -14l-6 -29h-271l5 29c30 11.333 59.333 19.333 88 24l125 593c-13.333 2.66699 -26.333 6.16699 -39 10.5s-25.334 9.16602 -38.001 14.499l7 29h468l-11 -46c-4 -17.333 -8.33301 -35 -13 -53s-9.66699 -36 -15 -54s-10.333 -34 -15 -48h-26l-20 149
h-202z" />
    <glyph glyph-name="uni0495" unicode="&#x495;" horiz-adv-x="487" 
d="M456 500c-5.33301 -26 -11.8359 -52.498 -19.5029 -79.498s-16.167 -54.167 -25.5 -81.5h-25l-21 118h-135l-60 -277c22 27.333 45.667 49.5 71 66.5s55.333 25.5 90 25.5c32 0 56.833 -9.33301 74.5 -28s26.5 -44 26.5 -76c0 -35.333 -5.5 -73 -16.5 -113
s-27.333 -78 -49 -114s-48.667 -67.833 -81 -95.5s-69.5 -46.834 -111.5 -57.501l-12 22c26.667 14 51.334 33.833 74.001 59.5s42.167 54 58.5 85s29 63 38 96s13.5 64.167 13.5 93.5c0 19.333 -4.5 35.166 -13.5 47.499s-22.167 18.5 -39.5 18.5
c-24.667 0 -48.667 -6.16699 -72 -18.5s-43 -29.833 -59 -52.5l-29 -139h-90l94 441c-11.333 2 -22.666 6.5 -33.999 13.5s-19.666 13.5 -24.999 19.5v26h378z" />
    <glyph glyph-name="uni0496" unicode="&#x496;" horiz-adv-x="974" 
d="M512 646c-13.333 4 -25.3271 8.00293 -35.9941 12.0029s-20.667 8.33301 -30 13l6 29h231l-6 -29c-8.66699 -4 -18.834 -8.16699 -30.501 -12.5s-24.834 -8.5 -39.501 -12.5l-59 -277l67 14l223 263c-12 3.33301 -23.333 7 -34 11s-21.667 8.66699 -33 14l6 29h227
l-6 -29c-13.333 -5.33301 -26.833 -10 -40.5 -14s-27.167 -7.66699 -40.5 -11l-243 -271l35.5 -71c13 -26.667 27.167 -54.334 42.5 -83.001s31.666 -57.667 48.999 -87s35.333 -57 54 -83h79c-2.66699 -13.333 -6.5 -28.833 -11.5 -46.5s-10.5 -35.667 -16.5 -54l-18 -54
c-6 -17.667 -11.667 -33.5 -17 -47.5h-26l-6 151h-64l-28 25c-15.333 22.667 -29.333 46.667 -42 72s-24.834 51.166 -36.501 77.499s-22.834 53 -33.501 80s-22 53.833 -34 80.5h-60l-60 -282c10.667 -3.33301 21 -6.83301 31 -10.5s19.667 -8.16699 29 -13.5l-5 -29h-232
l5 29c23.333 11.333 49.333 19.333 78 24l61 290l-69 -14l-51.5 -72.5l-58.5 -78.5l-64.5 -79.5c-22.333 -26.333 -45.833 -50.833 -70.5 -73.5l-39 -25h-131l5 25l52 24c30 26.667 59 54.5 87 83.5l80.5 87l73 83.5l63.5 73l-128 270
c-26.667 7.33301 -48.334 15.666 -65.001 24.999l6 29h213l-6 -29c-20.667 -10 -45 -18.333 -73 -25l114 -269h69z" />
    <glyph glyph-name="uni0497" unicode="&#x497;" horiz-adv-x="786" 
d="M58 430c17.333 24 36.3301 42.666 56.9971 55.999s44.667 20 72 20c14 0 26.5 -3.5 37.5 -10.5s20.5 -16.5 28.5 -28.5s14 -25.833 18 -41.5s6 -31.834 6 -48.501c0 -36 -3 -70.333 -9 -103h92l46 226h81l-47 -226h92c8.66699 34 20.334 65.167 35.001 93.5
s31.167 52.833 49.5 73.5s38.666 36.667 60.999 48s45.5 17 69.5 17c18 0 30.667 -1.16699 38 -3.5s15.333 -5.5 24 -9.5c0.666992 -7.33301 0.166992 -15.5 -1.5 -24.5s-4.83398 -18 -9.50098 -27s-10.5 -17.667 -17.5 -26s-15.5 -15.166 -25.5 -20.499l-43 58
c-12 -3.33301 -24.667 -12 -38 -26s-25.666 -33.167 -36.999 -57.5s-20.666 -53.666 -27.999 -87.999s-10.666 -73.5 -9.99902 -117.5c-0.666992 -38 4.83301 -65.5 16.5 -82.5s27.834 -25.5 48.501 -25.5c11.333 0 21.5 2.33301 30.5 7s18.167 11.667 27.5 21l11 -14
l-12 -18c-9.33301 -14.667 -15.5 -28.667 -18.5 -42s-4.5 -26.333 -4.5 -39s0.5 -25 1.5 -37s1.16699 -23.333 0.5 -34c-0.666992 -18 -4.5 -32.833 -11.5 -44.5s-16 -21.334 -27 -29.001s-23.333 -13.5 -37 -17.5s-27.5 -7.33301 -41.5 -10l-7 20
c12 3.33301 21.5 8.33301 28.5 15s12.167 13.834 15.5 21.501s5.33301 15.667 6 24s1 15.833 1 22.5c0 23.333 4.5 43.5 13.5 60.5s23.833 34.833 44.5 53.5l-2 2c-23.333 -16 -47.333 -24 -72 -24c-17.333 0 -32.166 3.5 -44.499 10.5s-22.5 16.5 -30.5 28.5
s-13.833 25.833 -17.5 41.5s-5.5 32.167 -5.5 49.5c0 18.667 0.666992 36.834 2 54.501s3.33301 35.167 6 52.5h-90l-47 -231h-80l47 231h-92c-9.33301 -34.667 -21.333 -66.5 -36 -95.5s-31.5 -54 -50.5 -75s-39.667 -37.333 -62 -49s-45.5 -17.5 -69.5 -17.5
c-18.667 0 -31.834 1.33301 -39.501 4s-15.5 5.66699 -23.5 9c-1.33301 8.66699 -1 18 1 28s5.33301 19.5 10 28.5s10.667 17.333 18 25s15.666 13.5 24.999 17.5l43 -59c14.667 4 29.167 13.167 43.5 27.5s26.833 33.666 37.5 57.999s19.334 53.5 26.001 87.5
s9.66699 72.667 9 116c0.666992 38 -3.33301 65.5 -12 82.5s-23 25.5 -43 25.5c-24.667 0 -47 -9.33301 -67 -28z" />
    <glyph glyph-name="uni0498" unicode="&#x498;" horiz-adv-x="560" 
d="M150 -191c0 30.667 0.329102 61.001 0.996094 91.001s2.33398 60 5.00098 90c-30 2.66699 -57.667 7.33398 -83 14.001s-46.333 14.667 -63 24c2 10.667 5.16699 23 9.5 37s9.33301 28.5 15 43.5l17.5 45c6 15 12 28.5 18 40.5h25l13 -139c4 -2 9.83301 -4 17.5 -6
s16.334 -3.83301 26.001 -5.5s19.5 -2.83398 29.5 -3.50098s19.333 -1 28 -1c28.667 0 55.167 4 79.5 12s45.5 20.167 63.5 36.5s32 37 42 62s15.333 54.5 16 88.5c-0.666992 34 -12.834 58.667 -36.501 74s-55.167 23 -94.5 23l-79 -11c0 9.33301 0.666992 19 2 29
s4.33301 19.667 9 29h32c11.333 0 25.333 0.5 42 1.5s30.667 2.16699 42 3.5c18.667 6.66699 36 15.667 52 27s29.667 24.5 41 39.5s20.333 31.167 27 48.5s10.334 35.666 11.001 54.999c-0.666992 38 -10 64.667 -28 80s-49 23 -93 23c-20 0 -36.833 -2 -50.5 -6
s-24.5 -8.33301 -32.5 -13l-78 -122h-26l2 37c0.666992 12 1.66699 24 3 36s3.33301 24.333 6 37s6 26.667 10 42c26.667 15.333 56.667 26 90 32s64.333 9 93 9c26.667 0 52.167 -2.66699 76.5 -8s45.666 -13.833 63.999 -25.5s32.833 -26.334 43.5 -44.001
s16 -38.834 16 -63.501c0 -17.333 -2.33301 -35.166 -7 -53.499s-13.167 -36.166 -25.5 -53.499s-29.166 -33.833 -50.499 -49.5s-48.666 -29.167 -81.999 -40.5v-4c13.333 -2 27 -6 41 -12s26.667 -14.5 38 -25.5s20.5 -24.167 27.5 -39.5s10.5 -33 10.5 -53
c0 -71.333 -22.667 -128.833 -68 -172.5s-108.666 -69.5 -189.999 -77.5c-9.33301 -28 -19.833 -57.167 -31.5 -87.5s-25.167 -61.5 -40.5 -93.5h-26v0z" />
    <glyph glyph-name="uni0499" unicode="&#x499;" horiz-adv-x="439" 
d="M-12 36c0.666992 8.66699 2.66406 17.4971 5.99707 26.4971s7.66602 17.833 12.999 26.5s11.333 16.667 18 24s14 13.333 22 18l68 -95c5.33301 -1.33301 12.333 -2.5 21 -3.5s15.667 -1.5 21 -1.5c15.333 0 31 3 47 9s30.5 14.5 43.5 25.5s23.667 24.667 32 41
s12.833 34.5 13.5 54.5c-0.666992 26.667 -8 46 -22 58s-37.667 20.667 -71 26l-70 -18c-3.33301 8.66699 -4.83301 17.667 -4.5 27s1.83301 18.333 4.5 27h71c36 11.333 63 28.5 81 51.5s26.667 45.167 26 66.5c0.666992 20 -5.33301 36.5 -18 49.5
s-33.334 19.833 -62.001 20.5c-5.33301 0 -12.666 -0.5 -21.999 -1.5s-17.333 -2.16699 -24 -3.5c-9.33301 -11.333 -19.833 -25.5 -31.5 -42.5l-32.5 -45.5c-6 2.66699 -11.833 7.33398 -17.5 14.001s-10.5 14.334 -14.5 23.001s-6.66699 18 -8 28
s-0.666016 19.667 2.00098 29c6 4 14 8.33301 24 13s22.5 9.16699 37.5 13.5s32.167 8 51.5 11s41.666 4.5 66.999 4.5c18.667 0 36.334 -2 53.001 -6s31.334 -10 44.001 -18s22.667 -18 30 -30s11 -26 11 -42c0 -63.333 -44.667 -111.333 -134 -144
c20.667 0 38.5 -3 53.5 -9s27.333 -13.667 37 -23s16.834 -20.166 21.501 -32.499s7 -24.5 7 -36.5c0 -22 -4.16699 -43 -12.5 -63s-20.5 -38 -36.5 -54s-35.5 -29.5 -58.5 -40.5s-48.833 -18.5 -77.5 -22.5c-9.33301 -8 -14.666 -17 -15.999 -27s-1.33301 -20.5 0 -31.5
s3.5 -22.333 6.5 -34s4.5 -23.167 4.5 -34.5c0 -27.333 -9 -48 -27 -62s-40.667 -23.667 -68 -29l-7 18c12 6 19.667 13.333 23 22s4.66602 18.167 3.99902 28.5s-2.33398 21.5 -5.00098 33.5s-4 24 -4 36c-0.666992 17.333 1.83301 32 7.5 44s15.834 23 30.501 33
c-36 0.666992 -67.667 5 -95 13s-48.666 19.667 -63.999 35z" />
    <glyph glyph-name="uni049A" unicode="&#x49a;" horiz-adv-x="666" 
d="M476 0l-28.999 24c-30 46 -59 95.667 -87 149s-54.333 107.333 -79 162h-53l-59 -282c27.333 -5.33301 50.333 -13.333 69 -24l-5 -29h-253l5 29c30 12 59.333 20 88 24l125 593c-14.667 2.66699 -28.5 6 -41.5 10s-24.833 9 -35.5 15l7 29h253l-6 -29
c-22.667 -10.667 -49.667 -19 -81 -25l-58 -277l60 14l240 263c-13.333 3.33301 -25.333 6.83301 -36 10.5s-21 8.5 -31 14.5l7 29h227l-7 -29c-12 -6 -25.333 -11 -40 -15s-28.334 -7.33301 -41.001 -10l-259 -270l41 -73l49.5 -82.5l54.5 -86l56 -83.5h75
c-2.66699 -13.333 -6.5 -28.833 -11.5 -46.5s-10.5 -35.667 -16.5 -54l-18 -54c-6 -17.667 -11.667 -33.5 -17 -47.5h-26l-6 151h-61z" />
    <glyph glyph-name="uni049B" unicode="&#x49b;" 
d="M378 -6c-12.667 0 -24.1709 4.00098 -34.5039 12.001s-21.5 21.667 -33.5 41c-21.333 36 -39.666 69.833 -54.999 101.5l-43 89.5l-36 10l-47 -248h-86l87 442l-70 9v25c19.333 8.66699 42.833 16.5 70.5 23.5s53.167 11.167 76.5 12.5l21 -11l-45 -227h29
c14 8.66699 29 19.334 45 32.001s31.333 25.667 46 39s28 26.166 40 38.499s21 22.833 27 31.5c0.666992 4.66699 1.16699 11 1.5 19s0.333008 16.167 0 24.5l-1 24c-0.333008 7.66699 -0.833008 13.5 -1.5 17.5c24.667 8.66699 48.667 13 72 13s43 -4.33301 59 -13
c-9.33301 -20.667 -23.5 -41.834 -42.5 -63.501s-39.333 -42.334 -61 -62.001s-42.834 -37.5 -63.501 -53.5l-49 -37c4.66699 -12.667 12.5 -29.167 23.5 -49.5l36 -63.5l39.5 -64l34 -52h75v-31c-8 -7.33301 -14.167 -15.666 -18.5 -24.999s-7.5 -19.5 -9.5 -30.5
s-3.33301 -22.333 -4 -34l-2 -34.5c-0.666992 -18 -4.5 -32.833 -11.5 -44.5s-16 -21.334 -27 -29.001s-23.333 -13.5 -37 -17.5s-27.5 -7.33301 -41.5 -10l-7 20c12 3.33301 21.333 8.33301 28 15s11.834 13.834 15.501 21.501s5.83398 15.667 6.50098 24s1 15.833 1 22.5
c0 23.333 6.33301 43.833 19 61.5s28.334 35.167 47.001 52.5l-3 3c-8 -6 -18.667 -11.667 -32 -17s-25.666 -8 -36.999 -8h-1z" />
    <glyph glyph-name="uni049C" unicode="&#x49c;" horiz-adv-x="705" 
d="M544 700h227.001l-6 -29c-14 -6 -28 -11 -42 -15s-27.333 -7.33301 -40 -10l-258 -269l41.5 -73.5l49.5 -83.5l54 -87c18.667 -29.333 37.667 -57.333 57 -84l42 -24l-5 -25h-119l-30 24c-30 46 -59 96 -87 150s-54.333 108.333 -79 163h-22l-33 -155h-51l32 155h-47
l-59 -284c28.667 -5.33301 51.667 -13.333 69 -24l-5 -29h-253l5 29c30 11.333 59.333 19.333 88 24l125 593c-28.667 4 -54.334 12.333 -77.001 25l7 29h253l-6 -29c-22.667 -10.667 -49.667 -19 -81 -25l-58 -278l48 5l33 161h52l-33 -156l29 5l240 263
c-13.333 3.33301 -25.833 7 -37.5 11s-21.5 8.66699 -29.5 14z" />
    <glyph glyph-name="uni049D" unicode="&#x49d;" horiz-adv-x="569" 
d="M279 274l23.0039 0.000976562c14 8.66699 27.5 19.334 40.5 32.001s25.167 25.667 36.5 39s21.333 26.166 30 38.499l22 31.5c0.666992 4.66699 1.16699 11 1.5 19s0.333008 16.167 0 24.5l-1 24c-0.333008 7.66699 -0.833008 13.5 -1.5 17.5
c24.667 8.66699 48.667 13 72 13c24 0 44 -4.33301 60 -13c-9.33301 -20.667 -22.333 -42 -39 -64s-34.334 -42.833 -53.001 -62.5s-37.167 -37.5 -55.5 -53.5s-33.5 -28.333 -45.5 -37c4.66699 -12.667 11.167 -29.167 19.5 -49.5s17.666 -41.333 27.999 -63l31.5 -63.5
c10.667 -20.667 21 -38 31 -52h63v-25c-13.333 -10.667 -27.833 -19.334 -43.5 -26.001s-32.5 -10 -50.5 -10c-16 0 -29.833 4 -41.5 12s-23.167 21.667 -34.5 41c-10.667 18 -19.834 36.5 -27.501 55.5s-14.334 37.167 -20.001 54.5s-10.167 33 -13.5 47
s-6.33301 25.333 -9 34l-31 2l-27 -128h-47l28 132l-49 4l-47 -248h-86l87 442l-70 9v25c19.333 8.66699 42.833 16.5 70.5 23.5s53.167 11.167 76.5 12.5l21 -11l-45 -227h48l29 132h47z" />
    <glyph glyph-name="uni049E" unicode="&#x49e;" horiz-adv-x="659" 
d="M80 581l124 -0.000976562l14 65c-28.667 4 -54.334 12.333 -77.001 25l6 29h254l-7 -29c-11.333 -5.33301 -23.666 -10 -36.999 -14s-27.666 -7.66699 -42.999 -11l-14 -65h110l-11 -48h-109l-35 -164l64 14l241 263c-13.333 3.33301 -25.5 7 -36.5 11
s-21.167 8.66699 -30.5 14l6 29h226l-6 -29c-14 -6 -28 -11 -42 -15s-27.333 -7.33301 -40 -10l-257 -269l41.5 -73l49.5 -83.5l54 -87.5c18.667 -29.333 37.667 -57.333 57 -84l43 -24l-5 -25h-122l-28 24c-30 46 -58.833 95.667 -86.5 149s-54.167 107.333 -79.5 162h-56
l-60 -282c13.333 -2.66699 26 -6 38 -10s22.667 -8.66699 32 -14l-5 -29h-254l5 29c15.333 6 30.166 10.833 44.499 14.5s28.833 6.83398 43.5 9.50098l102 480h-124z" />
    <glyph glyph-name="uni049F" unicode="&#x49f;" horiz-adv-x="481" 
d="M73 612l82 0.00292969l15 70l-70 9v25c19.333 8.66699 42.833 16.5 70.5 23.5s53.167 11.167 76.5 12.5l21 -11l-27 -129h168l-13 -52h-165l-57 -286h29c14 8.66699 28.5 19.334 43.5 32.001s29.333 25.667 43 39s25.834 26.166 36.501 38.499s19 22.833 25 31.5
c0.666992 4.66699 1.16699 11 1.5 19s0.333008 16.167 0 24.5l-1 24c-0.333008 7.66699 -0.833008 13.5 -1.5 17.5c24.667 8.66699 48.667 13 72 13c24 0 44 -4.33301 60 -13c-8.66699 -22 -22 -44 -40 -66s-37.333 -42.5 -58 -61.5s-41 -36.333 -61 -52
s-36 -27.834 -48 -36.501c4.66699 -12.667 12.167 -29.167 22.5 -49.5s21.666 -41.5 33.999 -63.5s25.333 -43.333 39 -64s26.167 -37.667 37.5 -51h63v-26c-13.333 -10.667 -27.833 -19.334 -43.5 -26.001s-32.167 -10 -49.5 -10c-16 0 -30.333 3.66699 -43 11
s-24.667 20.666 -36 39.999c-21.333 36 -39.333 70.167 -54 102.5l-42 90.5l-36 10l-47 -248h-86l111 560h-84z" />
    <glyph glyph-name="uni04A0" unicode="&#x4a0;" horiz-adv-x="761" 
d="M601 700h225.998l-6 -29c-14 -6 -27.833 -11 -41.5 -15s-26.834 -7.33301 -39.501 -10l-258 -269l41.5 -73.5l49.5 -83.5l54 -87c18.667 -29.333 37.667 -57.333 57 -84l43 -24l-6 -25h-120l-29 24c-30 46 -58.833 95.667 -86.5 149s-54.167 107.333 -79.5 162h-52
l-60 -282c13.333 -2.66699 26 -6 38 -10s22.667 -8.66699 32 -14l-5 -29h-254l5 29c30 12 59.333 20 88 24l126 595h-129l-81 -141h-26c0.666992 14 2.16699 29.5 4.5 46.5s5 34.167 8 51.5l9 50.5l8.5 44.5h389l-7 -29c-11.333 -5.33301 -23.666 -10 -36.999 -14
s-27.666 -7.66699 -42.999 -11l-59 -277l60 14l241 263c-13.333 3.33301 -25.666 7 -36.999 11s-21.333 8.66699 -30 14z" />
    <glyph glyph-name="uni04A1" unicode="&#x4a1;" horiz-adv-x="563" 
d="M186 457l-81 0.00292969l-68 -111h-25c2 25.333 4.66699 51 8 77s7.66602 51.667 12.999 77h247l-46 -226h30c14 8.66699 28.833 19.334 44.5 32.001l46 39c15 13.333 28.5 26.166 40.5 38.499s21 22.833 27 31.5c0.666992 4.66699 1.16699 11 1.5 19
s0.333008 16.167 0 24.5l-1 24c-0.333008 7.66699 -0.833008 13.5 -1.5 17.5c24.667 8.66699 48.334 13 71.001 13c24 0 44 -4.33301 60 -13c-9.33301 -20.667 -23.5 -41.834 -42.5 -63.501s-39.333 -42.334 -61 -62.001s-42.834 -37.5 -63.501 -53.5l-49 -37
c4.66699 -12.667 12.5 -29.167 23.5 -49.5l36 -63.5l39.5 -64l34 -51h63v-26c-13.333 -10.667 -27.833 -19.334 -43.5 -26.001s-32.167 -10 -49.5 -10c-16 0 -30 4 -42 12s-23.667 21.667 -35 41c-21.333 36 -39.666 69.833 -54.999 101.5l-43 89.5l-36 10l-47 -248h-86z
" />
    <glyph glyph-name="uni04A2" unicode="&#x4a2;" horiz-adv-x="733" 
d="M233 0l-253.002 0.000976562l5 29c14.667 6.66699 29.334 11.834 44.001 15.501s29.334 6.5 44.001 8.5l125 593c-30 6 -55.667 14.333 -77 25l7 29h253l-6 -29c-11.333 -6 -24.333 -11 -39 -15s-28.667 -7.33301 -42 -10l-55 -261h314l56 261
c-13.333 3.33301 -25.833 6.83301 -37.5 10.5s-22.834 8.5 -33.501 14.5l7 29h253l-6 -29c-13.333 -6.66699 -27.5 -11.834 -42.5 -15.501s-29.833 -6.83398 -44.5 -9.50098l-126 -594h109c-2.66699 -13.333 -6.5 -29 -11.5 -47s-10.333 -36.167 -16 -54.5
s-11.667 -36.333 -18 -54l-17.5 -47.5h-25l-6 151h-197l5 29c12.667 5.33301 25.834 10 39.501 14s27.5 7.33301 41.5 10l59 280h-315l-58 -280c12 -2.66699 24 -6 36 -10s23 -8.66699 33 -14z" />
    <glyph glyph-name="uni04A3" unicode="&#x4a3;" horiz-adv-x="552" 
d="M376 -6c-14.667 0 -25.8311 4 -33.498 12s-11.5 16.667 -11.5 26c0 12 1.83301 25.667 5.5 41l10.5 46l22 113h-194l-48 -232h-84l88 442l-61 9l-1 25c9.33301 4.66699 20.166 9.16699 32.499 13.5s25 8.16602 38 11.499s25.667 6 38 8s23.166 3 32.499 3l20 -12
l-47 -225h194l44 225h84l-88 -444h74v-32c-8 -7.33301 -14.167 -15.666 -18.5 -24.999s-7.5 -19.5 -9.5 -30.5s-3.33301 -22.333 -4 -34l-2 -34.5c-0.666992 -18 -4.5 -32.833 -11.5 -44.5s-16 -21.334 -27 -29.001s-23.333 -13.5 -37 -17.5s-27.5 -7.33301 -41.5 -10l-7 20
c12 3.33301 21.5 8.33301 28.5 15s12.167 13.834 15.5 21.501s5.33301 15.667 6 24s1 15.833 1 22.5c0 23.333 6.5 43.833 19.5 61.5s29.167 35.167 48.5 52.5l-3 3c-8.66699 -6 -20 -11.667 -34 -17s-27 -8 -39 -8z" />
    <glyph glyph-name="uni04A4" unicode="&#x4a4;" horiz-adv-x="908" 
d="M579 53c15.333 -2 30.834 -5.16797 46.501 -9.50098s30.167 -9.16602 43.5 -14.499l-5 -29h-267l5 29c26.667 12.667 53.667 20.667 81 24l60 280h-316l-58 -280c12 -2.66699 24 -6 36 -10s23 -8.66699 33 -14l-5 -29h-253l5 29c28.667 10.667 58 18.667 88 24l125 593
c-30 4.66699 -55.667 13 -77 25l7 29h253l-6 -29c-13.333 -6 -26.833 -11 -40.5 -15s-27.167 -7.33301 -40.5 -10l-55 -261h314l56 261c-10.667 2 -23.334 5.33301 -38.001 10s-25.667 9.66699 -33 15l7 29h461c-2.66699 -13.333 -6 -28.666 -10 -45.999
s-8.5 -35.333 -13.5 -54s-10.167 -36.834 -15.5 -54.501s-10.333 -33.5 -15 -47.5h-25l-20 150h-202z" />
    <glyph glyph-name="uni04A5" unicode="&#x4a5;" horiz-adv-x="692" 
d="M694 500c-6 -26 -12.998 -52.998 -20.998 -80.998s-16.667 -55.667 -26 -83h-25l-19 121h-107l-79 -401h73v-26c-13.333 -10.667 -29.5 -19.334 -48.5 -26.001s-37.5 -10 -55.5 -10c-19.333 0 -33.333 4 -42 12s-13 16.667 -13 26c0 12 1.83301 25.667 5.5 41l10.5 46
l22 113h-194l-48 -232h-84l88 442l-61 9l-1 25c9.33301 4.66699 20.166 9.16699 32.499 13.5s25 8.16602 38 11.499s25.667 6 38 8s23.166 3 32.499 3l20 -12l-47 -225h194l44 225h273z" />
    <glyph glyph-name="uni04A6" unicode="&#x4a6;" horiz-adv-x="1010" 
d="M972 264c0 -48 -6.83203 -93.6621 -20.499 -136.995s-33.334 -81.833 -59.001 -115.5s-56.667 -61.334 -93 -83.001s-77.166 -34.5 -122.499 -38.5l-1 27c34 12 63.667 29.167 89 51.5s46.166 48 62.499 77s28.5 60.833 36.5 95.5s12 71 12 109
c0 35.333 -6.83301 62.666 -20.5 81.999s-40.167 29 -79.5 29c-28 0 -54.833 -4 -80.5 -12s-49.167 -17.667 -70.5 -29l-56 -267c12.667 -1.33301 25.167 -3.83301 37.5 -7.5s24.833 -9.16699 37.5 -16.5l-6 -29h-251l5 29c16.667 9.33301 43.667 17.333 81 24l127 595h-305
l-126 -595c25.333 -5.33301 48.333 -13.333 69 -24l-5 -29h-254l6 29c11.333 5.33301 24 10 38 14s30.667 7.33301 50 10l125 593c-13.333 2.66699 -26.333 6.16699 -39 10.5s-25.334 9.16602 -38.001 14.499l6 29h661l-6 -29c-13.333 -6.66699 -27.5 -11.834 -42.5 -15.501
s-29.833 -6.83398 -44.5 -9.50098l-59 -278c20 10 44.167 20 72.5 30s61.5 15 99.5 15c30.667 0 56.334 -3.5 77.001 -10.5s37.5 -17 50.5 -30s22.333 -28.667 28 -47s8.5 -38.833 8.5 -61.5z" />
    <glyph glyph-name="uni04A7" unicode="&#x4a7;" horiz-adv-x="728" 
d="M324 0l62.002 285.005l12.5 57.5c3.66699 17.667 5.5 35.167 5.5 52.5c0 15.333 -3.5 28.333 -10.5 39s-18.167 16 -33.5 16c-18 0 -36.333 -7.33301 -55 -22s-36 -32.334 -52 -53.001s-30.5 -42.167 -43.5 -64.5s-22.833 -40.833 -29.5 -55.5l-53 -255h-84l88 442l-61 9
l2 25c9.33301 4.66699 19.833 9.16699 31.5 13.5s23.667 8.16602 36 11.499s24.333 6 36 8s22.5 3 32.5 3l20 -12l-38 -177h5c12.667 26.667 27.167 51.5 43.5 74.5s33.666 43 51.999 60s37.5 30.333 57.5 40s40.333 14.5 61 14.5c28 0 48.5 -8.83301 61.5 -26.5
s19.5 -39.834 19.5 -66.501c0 -14.667 -1.66699 -33 -5 -55s-7.33301 -42.667 -12 -62l-30 -122c21.333 27.333 44.833 49.5 70.5 66.5s55.5 25.5 89.5 25.5c32.667 0 57.834 -9.33301 75.501 -28s26.5 -44 26.5 -76c0 -35.333 -5.5 -73 -16.5 -113s-27.5 -78 -49.5 -114
s-49.167 -67.833 -81.5 -95.5s-69.5 -46.834 -111.5 -57.501l-11 22c26.667 14 51.167 33.833 73.5 59.5s41.666 54 57.999 85s29.166 63 38.499 96s14 64.167 14 93.5c0 19.333 -4.5 35.166 -13.5 47.499s-22.167 18.5 -39.5 18.5c-24.667 0 -48.667 -6.16699 -72 -18.5
s-43 -29.833 -59 -52.5l-29 -139h-82z" />
    </font>
</defs>
</svg>
